VERSION	0.00.00	1.03.00
FES_MODE	0
BPM_DEF	120.000	120.000	120.000	120.000
MET_DEF	4	4
RESOLUTION	384
CLK_DEF	384
COMPATIBLE_CODE	MA2

BPM	0	0	120.000
MET	0	0	4	4

TAP	2	0	7
TAP	2	96	7
TAP	2	192	6
TAP	3	0	6
TAP	3	96	6
TAP	3	192	5
TAP	4	0	5
TAP	4	96	5
TAP	4	192	4
STR	5	0	4
SI_	5	0	4	96	144	7
TAP	6	0	0
TAP	6	96	0
TAP	6	192	1
TAP	7	0	2
TAP	7	96	2
TAP	7	192	3
TAP	8	0	4
TAP	8	96	5
TAP	8	192	4
TAP	8	192	5
STR	9	0	3
SCL	9	0	3	96	144	0
TAP	10	0	7
TAP	10	96	7
TAP	10	192	6
HLD	11	0	6	192
TAP	11	192	7
TAP	12	0	5
TAP	12	96	5
TAP	12	192	4
STR	13	0	3
SCR	13	0	3	96	144	6
TAP	14	0	7
TAP	14	48	7
TAP	14	96	7
TAP	14	192	0
TAP	15	0	7
TAP	15	96	0
TAP	15	192	0
TAP	15	192	7
TAP	16	0	0
TAP	16	48	0
TAP	16	96	0
TAP	16	192	1
STR	17	0	3
SI_	17	0	3	96	144	7
TAP	18	0	6
TAP	18	96	6
TAP	18	192	5
TAP	18	288	5
TAP	19	0	4
TAP	19	0	5
TAP	19	96	3
TAP	19	96	5
TAP	19	192	4
TAP	19	192	5
TAP	20	0	3
TAP	20	96	3
TAP	20	192	2
TAP	20	288	2
TAP	21	0	2
TAP	21	0	3
TAP	21	96	2
TAP	21	96	4
TAP	21	192	2
TAP	21	192	3
TAP	21	288	2
TAP	22	96	7
TAP	22	192	7
TAP	22	288	7
TAP	23	0	7
TAP	23	192	0
TAP	23	288	0
TAP	24	0	0
TAP	24	96	7
TAP	24	192	7
TAP	24	288	7
TAP	25	0	6
TAP	25	96	5
TAP	25	192	3
TAP	25	192	4
BRK	25	288	2
BRK	25	288	3
TAP	26	0	0
TAP	26	96	1
TAP	26	192	0
TAP	26	192	1
TAP	26	288	0
TAP	26	288	7
TAP	27	0	6
TAP	27	0	7
STR	27	192	6
SI_	27	192	6	96	144	3
STR	27	192	7
SI_	27	192	7	96	144	2
TAP	28	192	3
TAP	28	288	3
TAP	29	0	2
TAP	29	96	2
TAP	29	192	1
TAP	29	288	0
TAP	30	0	7
TAP	30	96	7
TAP	30	192	6
TAP	30	288	6
BRK	31	0	6
BRK	31	0	7
STR	31	192	5
SCL	31	192	5	96	144	2
TAP	32	192	1
TAP	32	288	1
TAP	33	0	0
TAP	33	96	0
TAP	33	192	7
STR	33	288	0
SI_	33	288	0	96	144	3
TAP	35	0	2
TAP	35	96	1
TAP	35	192	0
TAP	36	0	0
TAP	36	96	7
TAP	36	192	6
TAP	37	0	6
TAP	37	96	5
TAP	37	192	4
TAP	38	0	3
TAP	38	96	5
TAP	38	192	3
TAP	39	0	4
TAP	39	96	2
TAP	39	192	4
TAP	40	0	0
TAP	40	0	1
STR	40	192	0
SI_	40	192	0	96	243	5
STR	40	192	7
SI_	40	192	7	96	240	2
TAP	43	192	3
TAP	43	288	3
TAP	44	0	2
TAP	44	96	2
TAP	44	192	2
TAP	44	192	3
TAP	45	0	4
TAP	45	48	4
TAP	45	96	4
TAP	45	192	5
TAP	46	0	6
TAP	46	48	6
TAP	46	96	6
TAP	46	192	7
STR	46	288	7
SCR	46	288	7	96	144	2
TAP	47	192	1
TAP	47	288	1
TAP	48	0	2
TAP	48	96	2
TAP	48	192	0
TAP	48	192	1
TAP	49	0	0
TAP	49	48	0
TAP	49	96	0
TAP	49	192	7
TAP	50	0	6
TAP	50	48	6
TAP	50	96	6
TAP	50	192	7
STR	50	288	0
SI_	50	288	0	96	144	4
TAP	51	192	3
TAP	51	288	4
TAP	52	0	3
TAP	52	96	4
TAP	52	192	2
TAP	52	192	3
TAP	53	0	4
TAP	53	48	4
TAP	53	96	4
TAP	53	192	5
TAP	54	0	6
TAP	54	48	6
TAP	54	96	6
HLD	54	192	7	96
TAP	54	288	0
HLD	55	0	0	96
TAP	55	96	1
TAP	55	192	7
TAP	55	288	7
TAP	56	0	6
TAP	56	96	6
TAP	56	192	6
TAP	56	192	7
TAP	57	0	0
TAP	57	48	0
TAP	57	96	0
TAP	57	192	1
TAP	58	0	2
TAP	58	48	2
TAP	58	96	2
TAP	58	192	3
TAP	58	288	4
HLD	59	0	4	768
TAP	59	96	3
HLD	59	192	2	1536
HLD	61	192	5	768

T_REC_TAP	172
T_REC_BRK	4
T_REC_XTP	0
T_REC_HLD	6
T_REC_XHO	0
T_REC_STR	12
T_REC_BST	0
T_REC_XST	0
T_REC_TTP	0
T_REC_THO	0
T_REC_SLD	12
T_REC_ALL	206
T_NUM_TAP	184
T_NUM_BRK	4
T_NUM_HLD	6
T_NUM_SLD	12
T_NUM_ALL	206
T_JUDGE_TAP	188
T_JUDGE_HLD	72
T_JUDGE_SLD	12
T_JUDGE_ALL	272
TTM_EACHPAIRS	21
TTM_SCR_TAP	92000
TTM_SCR_BRK	10400
TTM_SCR_HLD	6000
TTM_SCR_SLD	18000
TTM_SCR_ALL	126400
TTM_SCR_S	122250
TTM_SCR_SS	126000
TTM_RAT_ACV	10031

