VERSION	0.00.00	1.03.00
FES_MODE	0
BPM_DEF	120.000	120.000	120.000	120.000
MET_DEF	4	4
RESOLUTION	384
CLK_DEF	384
COMPATIBLE_CODE	MA2

BPM	0	0	120.000
MET	0	0	4	4

HLD	6	0	5	96
HLD	6	192	4	96
HLD	7	0	3	96
HLD	7	192	2	96
HLD	8	0	2	96
HLD	8	192	3	96
HLD	9	0	4	96
TAP	9	192	5
TAP	9	288	5
TAP	10	96	6
TAP	10	288	6
TAP	11	96	7
TAP	11	288	7
TAP	12	96	0
TAP	12	288	0
TAP	13	96	1
TAP	13	288	1
HLD	14	0	1	96
TAP	14	192	1
HLD	15	0	3	96
TAP	15	192	3
HLD	16	0	5	96
TAP	16	192	5
HLD	17	0	7	96
TAP	17	192	7
HLD	18	0	6	96
TAP	18	192	6
TAP	18	288	6
HLD	19	0	4	96
TAP	19	192	4
TAP	19	288	4
HLD	20	0	2	96
TAP	20	192	2
TAP	20	288	2
HLD	21	0	0	96
TAP	21	192	0
TAP	21	288	0
HLD	22	0	0	192
HLD	23	0	7	192
HLD	24	0	6	192
TAP	25	0	6
TAP	25	96	6
TAP	25	192	6
BRK	25	288	6
TAP	26	96	7
TAP	26	288	0
TAP	27	96	1
TAP	27	288	0
TAP	27	288	1
TAP	28	96	0
TAP	28	288	7
TAP	29	96	6
TAP	29	288	5
TAP	29	288	6
TAP	30	96	6
TAP	30	288	5
TAP	31	96	4
TAP	31	288	3
TAP	31	288	4
TAP	32	96	4
TAP	32	288	3
TAP	33	96	2
STR	33	288	1
SI_	33	288	1	96	192	4
STR	36	0	6
SI_	36	0	6	96	192	3
HLD	38	0	1	192
HLD	39	0	3	192
HLD	40	0	5	192
STR	41	0	7
SI_	41	0	7	96	192	3
TAP	43	288	5
TAP	44	96	4
TAP	44	96	5
TAP	44	288	4
TAP	45	96	3
TAP	45	96	4
TAP	45	288	3
TAP	46	96	2
TAP	46	96	3
TAP	46	288	2
TAP	47	0	2
TAP	47	96	2
TAP	47	288	2
TAP	48	96	2
TAP	48	96	3
TAP	48	288	3
TAP	49	96	3
TAP	49	96	4
TAP	49	288	4
TAP	50	96	4
TAP	50	96	5
TAP	50	288	5
TAP	51	0	5
TAP	51	96	5
TAP	51	288	6
TAP	52	96	6
TAP	52	96	7
TAP	52	288	7
TAP	53	96	0
TAP	53	96	7
TAP	53	288	0
TAP	54	96	0
TAP	54	96	1
TAP	54	288	1
TAP	55	0	1
TAP	55	96	1
TAP	55	288	1
TAP	56	96	0
TAP	56	96	1
TAP	56	288	0
TAP	57	96	0
TAP	57	96	7
TAP	57	288	7
TAP	58	96	6
TAP	58	96	7
TAP	58	288	6
TAP	59	0	6
TAP	59	96	6
HLD	59	192	6	480
HLD	61	0	0	96
HLD	61	192	7	768

T_REC_TAP	91
T_REC_BRK	1
T_REC_XTP	0
T_REC_HLD	24
T_REC_XHO	0
T_REC_STR	3
T_REC_BST	0
T_REC_XST	0
T_REC_TTP	0
T_REC_THO	0
T_REC_SLD	3
T_REC_ALL	122
T_NUM_TAP	94
T_NUM_BRK	1
T_NUM_HLD	24
T_NUM_SLD	3
T_NUM_ALL	122
T_JUDGE_TAP	95
T_JUDGE_HLD	82
T_JUDGE_SLD	3
T_JUDGE_ALL	180
TTM_EACHPAIRS	15
TTM_SCR_TAP	47000
TTM_SCR_BRK	2600
TTM_SCR_HLD	24000
TTM_SCR_SLD	4500
TTM_SCR_ALL	78100
TTM_SCR_S	75700
TTM_SCR_SS	78000
TTM_RAT_ACV	10012

