VERSION	0.00.00	1.03.00
FES_MODE	0
BPM_DEF	200.000	200.000	205.001	200.000
MET_DEF	4	4
RESOLUTION	384
CLK_DEF	384
COMPATIBLE_CODE	MA2

BPM	0	0	200.000
BPM	54	0	205.001
BPM	68	0	201.000
BPM	72	192	205.001
BPM	76	192	204.000
BPM	84	192	203.000
BPM	88	192	200.000
BPM	91	192	201.000
BPM	96	192	203.000
BPM	100	192	202.000
MET	0	0	4	4

HLD	2	0	7	144
HLD	2	144	6	144
HLD	2	288	5	192
TAP	3	0	4
TAP	3	96	3
TAP	3	288	0
HLD	4	0	0	144
HLD	4	144	1	144
HLD	4	288	2	288
TAP	5	0	3
TAP	5	96	4
TAP	5	192	3
TAP	5	288	7
HLD	6	0	7	288
TAP	6	144	6
HLD	6	288	0	192
TAP	7	0	1
TAP	7	96	1
HLD	7	288	5	96
HLD	8	0	4	144
HLD	8	144	7	144
HLD	8	288	1	288
TAP	9	0	2
TAP	9	96	3
BRK	9	192	4
TAP	10	0	2
TAP	10	48	3
TAP	10	96	2
TAP	10	192	5
TAP	10	240	4
TAP	10	288	5
TAP	11	0	1
TAP	11	48	2
TAP	11	96	7
TAP	11	144	6
TAP	11	192	4
TAP	11	240	5
TAP	11	288	3
TAP	12	0	6
TAP	12	48	7
TAP	12	96	5
TAP	12	192	1
TAP	12	240	0
TAP	12	288	2
TAP	12	336	5
TAP	13	0	3
TAP	13	48	4
STR	13	96	6
SCL	13	96	6	96	48	3
HLD	14	0	2	96
TAP	14	48	3
TAP	14	96	1
HLD	14	192	5	96
TAP	14	240	4
TAP	14	288	6
TAP	15	0	1
TAP	15	48	0
TAP	15	96	1
TAP	15	144	6
TAP	15	192	7
TAP	15	240	6
TAP	15	288	0
TAP	15	288	7
TAP	16	0	0
TAP	16	0	4
TAP	16	144	3
TAP	16	144	7
STR	16	288	0
SI_	16	288	0	96	48	4
STR	17	0	7
SI_	17	0	7	96	48	3
STR	17	96	1
SI_	17	96	1	96	48	4
STR	17	192	6
SI_	17	192	6	96	48	3
TAP	18	0	6
TAP	18	48	7
STR	18	96	6
SCL	18	96	6	96	72	3
TAP	18	144	7
TAP	18	192	6
TAP	18	288	2
TAP	18	336	3
TAP	19	48	7
STR	19	96	6
SI_	19	96	6	96	48	3
STR	19	192	0
SCL	19	192	0	96	72	5
TAP	20	48	5
TAP	20	96	4
TAP	20	144	5
TAP	20	192	4
STR	20	336	0
SI_	20	336	0	96	144	5
TAP	21	48	0
STR	21	192	7
SI_	21	192	7	96	48	3
TAP	21	240	7
TAP	22	0	1
TAP	22	48	0
STR	22	96	1
SCR	22	96	1	96	72	4
TAP	22	144	0
TAP	22	192	1
TAP	22	288	5
TAP	22	336	4
TAP	23	48	2
TAP	23	96	3
TAP	23	192	2
TAP	23	192	6
STR	23	288	2
SCL	23	288	2	96	96	7
STR	24	0	7
SCL	24	0	7	96	96	4
STR	24	96	4
SI_	24	96	4	96	96	0
STR	24	192	0
SCR	24	192	0	96	96	3
STR	24	288	3
SI_	24	288	3	96	96	7
STR	25	0	7
SCL	25	0	7	96	96	4
STR	25	96	4
SI_	25	96	4	96	96	0
STR	26	0	7
SI_	26	0	7	96	48	2
TAP	26	48	7
STR	26	96	1
SI_	26	96	1	96	48	5
TAP	26	144	1
STR	26	192	6
SCL	26	192	6	96	72	3
TAP	26	240	6
TAP	27	48	2
TAP	27	96	3
STR	27	144	1
SI_	27	144	1	96	48	4
STR	27	192	5
SI_	27	192	5	96	48	2
TAP	28	48	0
STR	28	96	7
SI_	28	96	7	96	48	3
TAP	28	144	7
STR	28	288	1
SI_	28	288	1	96	48	4
TAP	28	336	1
STR	29	48	5
SI_	29	48	5	96	48	0
TAP	29	96	5
TAP	29	192	1
TAP	29	240	0
TAP	29	288	0
TAP	29	288	7
STR	30	0	0
SI_	30	0	0	96	48	5
TAP	30	48	0
STR	30	96	6
SI_	30	96	6	96	48	2
TAP	30	144	6
STR	30	192	1
SCR	30	192	1	96	72	4
TAP	30	240	1
TAP	31	48	5
TAP	31	96	4
STR	31	144	6
SI_	31	144	6	96	48	3
STR	31	192	2
SI_	31	192	2	96	48	5
STR	32	0	7
SI_	32	0	7	96	48	2
TAP	32	48	7
STR	32	144	1
SI_	32	144	1	96	48	4
TAP	32	192	1
STR	32	288	3
SI_	32	288	3	96	48	6
TAP	32	336	3
STR	33	48	5
SI_	33	48	5	96	48	0
TAP	33	96	5
BRK	33	192	7
HLD	34	0	6	192
TAP	34	96	7
TAP	34	192	0
TAP	34	288	3
TAP	34	336	2
TAP	35	48	3
HLD	35	96	2	96
HLD	35	192	1	96
HLD	35	288	0	96
HLD	36	0	7	192
TAP	36	96	6
TAP	36	192	5
TAP	36	288	1
TAP	36	336	0
TAP	37	48	1
STR	37	96	0
SI_	37	96	0	96	48	4
TAP	37	192	0
HLD	38	0	1	192
TAP	38	96	0
TAP	38	192	7
TAP	38	288	4
TAP	38	336	5
TAP	39	48	0
HLD	39	96	5	96
HLD	39	192	6	96
HLD	39	288	7	96
TAP	40	0	0
TAP	40	48	7
TAP	40	96	0
HLD	40	192	7	144
TAP	40	288	6
HLD	40	336	5	96
TAP	41	48	6
HLD	41	96	7	96
BRK	41	192	0
HLD	42	0	0	96
STR	42	96	2
SI_	42	96	2	96	96	6
TAP	42	288	4
TAP	42	336	6
TAP	43	48	0
TAP	43	96	2
HLD	43	192	6	96
HLD	43	288	5	96
HLD	44	0	4	96
STR	44	96	6
SI_	44	96	6	96	48	1
TAP	44	288	4
TAP	44	336	2
TAP	45	48	0
TAP	45	96	6
TAP	45	192	1
HLD	45	288	0	96
HLD	46	0	5	96
STR	46	96	3
SI_	46	96	3	96	48	0
TAP	46	288	7
TAP	46	336	1
TAP	47	48	4
TAP	47	96	0
TAP	47	192	4
TAP	47	192	5
TAP	47	288	2
TAP	47	288	3
HLD	48	0	2	96
STR	48	96	3
SI_	48	96	3	96	72	7
TAP	48	192	3
TAP	49	0	0
TAP	49	64	7
TAP	49	128	6
TAP	49	192	5
TAP	49	256	4
TAP	49	320	3
TAP	50	0	0
TAP	50	144	3
TAP	50	144	7
TAP	50	288	2
TAP	50	288	6
TAP	51	0	1
TAP	51	0	5
TAP	51	96	0
TAP	51	96	4
TAP	51	192	3
BRK	51	192	7
BRK	51	336	1
TAP	51	336	5
BRK	52	96	3
TAP	52	96	7
TAP	52	192	0
TAP	52	192	7
TAP	52	256	2
TAP	52	288	3
TAP	52	352	5
TAP	53	0	4
TAP	53	144	2
TAP	53	144	3
TAP	53	240	5
TAP	53	288	4
TAP	54	0	0
TAP	54	0	1
STR	54	96	5
SI_	54	96	5	96	96	1
STR	54	192	1
SCL	54	192	1	96	96	6
STR	54	288	6
SCL	54	288	6	96	94	3
STR	55	0	3
SI_	55	0	3	96	91	7
STR	55	96	7
SCR	55	96	7	96	48	2
BRK	55	192	5
STR	56	0	3
SI_	56	0	3	96	48	7
STR	56	192	1
SI_	56	192	1	96	96	5
STR	56	288	5
SI_	56	288	5	96	96	1
STR	57	0	1
SCL	57	0	1	96	96	6
STR	57	192	5
SI_	57	192	5	96	96	1
STR	57	288	1
SI_	57	288	1	96	96	5
STR	58	0	5
SCL	58	0	5	96	96	2
STR	58	192	0
SI_	58	192	0	96	48	3
STR	58	288	6
SI_	58	288	6	96	48	2
STR	59	0	4
SI_	59	0	4	96	48	0
STR	59	192	1
SI_	59	192	1	96	48	4
STR	59	192	5
SI_	59	192	5	96	48	0
STR	60	0	0
SCL	60	0	0	96	48	5
STR	60	0	4
SCL	60	0	4	96	48	1
TAP	60	192	4
TAP	60	288	3
TAP	60	288	5
TAP	61	0	4
TAP	61	96	2
TAP	61	96	6
TAP	61	192	1
TAP	61	192	7
TAP	61	288	0
BRK	62	0	0
BRK	62	0	4
STR	62	96	0
SI_	62	96	0	96	48	4
TAP	62	192	0
STR	62	192	7
SI_	62	192	7	96	48	3
STR	62	288	0
SI_	62	288	0	96	48	3
TAP	62	288	7
TAP	63	0	0
STR	63	0	7
SI_	63	0	7	96	48	4
STR	63	96	1
SI_	63	96	1	96	48	5
TAP	63	96	7
TAP	63	192	1
STR	64	0	2
SCL	64	0	2	96	72	7
STR	64	96	5
SCL	64	96	5	96	72	2
STR	64	192	6
SCR	64	192	6	96	72	1
TAP	65	0	7
STR	65	96	0
SI_	65	96	0	96	48	5
STR	65	96	5
SCR	65	96	5	96	48	0
STR	66	0	1
SCR	66	0	1	96	48	4
STR	66	0	4
SI_	66	0	4	96	48	1
TAP	66	192	1
TAP	66	192	6
TAP	66	336	1
TAP	66	336	3
TAP	67	96	4
TAP	67	96	6
STR	67	192	0
SI_	67	192	0	96	48	5
STR	67	192	1
SI_	67	192	1	96	48	5
STR	68	0	6
SI_	68	0	6	96	48	2
STR	68	0	7
SI_	68	0	7	96	48	2
STR	68	192	0
SI_	68	192	0	96	240	4
STR	68	192	7
SI_	68	192	7	96	240	3
HLD	70	0	4	336
TAP	70	0	5
TAP	70	192	0
TAP	70	336	2
STR	71	96	4
SI_	71	96	4	96	48	0
STR	71	288	6
SI_	71	288	6	96	96	2
STR	72	0	2
SI_	72	0	2	96	96	6
STR	72	192	1
SI_	72	192	1	96	48	4
TAP	72	288	1
STR	72	288	7
SI_	72	288	7	96	48	3
STR	73	0	4
SI_	73	0	4	96	48	1
TAP	73	0	7
TAP	73	96	4
STR	73	192	6
SI_	73	192	6	96	48	3
STR	73	288	0
SI_	73	288	0	96	48	4
TAP	73	288	6
TAP	74	0	0
STR	74	0	3
SI_	74	0	3	96	48	6
TAP	74	96	3
STR	74	192	1
SI_	74	192	1	96	48	4
TAP	74	288	1
STR	74	288	6
SI_	74	288	6	96	48	2
STR	75	0	3
SI_	75	0	3	96	48	0
TAP	75	0	6
TAP	75	96	3
BRK	75	192	7
TAP	76	0	0
TAP	76	0	6
TAP	76	48	7
TAP	76	96	2
TAP	76	96	4
TAP	76	144	3
STR	76	192	0
SI_	76	192	0	96	48	5
STR	76	288	3
SI_	76	288	3	96	48	7
STR	77	0	4
SI_	77	0	4	96	48	1
STR	77	96	6
SI_	77	96	6	96	48	2
STR	77	192	0
SI_	77	192	0	96	36	4
STR	77	288	2
SI_	77	288	2	96	48	6
TAP	78	0	0
STR	78	96	0
SI_	78	96	0	96	48	3
BRK	78	192	0
STR	78	192	7
SI_	78	192	7	96	48	4
STR	78	288	2
SI_	78	288	2	96	51	5
BRK	78	288	7
BRK	79	0	2
STR	79	0	6
SI_	79	0	6	96	48	1
STR	79	96	0
SCL	79	96	0	96	48	5
BRK	79	96	6
BRK	79	192	0
TAP	80	0	5
TAP	80	0	7
TAP	80	96	0
TAP	80	96	2
STR	80	192	3
SI_	80	192	3	96	48	7
TAP	80	288	3
STR	80	288	5
SI_	80	288	5	96	48	1
TAP	81	0	5
STR	81	0	7
SI_	81	0	7	96	48	4
TAP	81	96	7
STR	81	192	6
SI_	81	192	6	96	48	2
STR	81	288	4
SI_	81	288	4	96	48	0
TAP	81	288	6
STR	82	0	2
SI_	82	0	2	96	48	5
TAP	82	0	4
TAP	82	96	2
STR	82	192	0
SI_	82	192	0	96	46	4
TAP	82	288	0
STR	82	288	6
SI_	82	288	6	96	44	2
STR	83	0	4
SI_	83	0	4	96	43	1
TAP	83	0	6
TAP	83	96	4
STR	83	192	4
SI_	83	192	4	96	96	7
STR	84	0	2
SI_	84	0	2	96	96	7
STR	84	192	3
SI_	84	192	3	96	240	7
HLD	86	0	6	192
HLD	86	192	0	192
TAP	87	0	1
HLD	87	96	1	288
HLD	88	0	7	192
STR	88	96	5
SCR	88	96	5	96	192	0
STR	90	192	2
SCL	90	192	2	96	96	7
STR	91	0	4
SCL	91	0	4	96	96	1
STR	91	192	6
SCR	91	192	6	96	96	1
STR	92	0	4
SCR	92	0	4	96	96	7
STR	92	192	1
SCR	92	192	1	96	192	4
TAP	94	192	6
STR	94	240	0
SI_	94	240	0	96	48	4
TAP	94	336	0
STR	95	0	2
SI_	95	0	2	96	48	6
TAP	95	96	2
STR	95	144	4
SI_	95	144	4	96	48	0
TAP	95	240	4
STR	95	288	6
SI_	95	288	6	96	48	2
TAP	96	0	6
TAP	96	48	7
BRK	96	96	0
TAP	96	192	2
TAP	96	240	1
STR	96	288	0
SCR	96	288	0	96	48	3
TAP	96	336	7
TAP	97	0	6
TAP	97	96	5
TAP	97	144	4
TAP	97	240	2
TAP	97	288	3
STR	98	0	2
SI_	98	0	2	96	48	5
STR	98	0	6
SI_	98	0	6	96	48	1
STR	98	192	4
SI_	98	192	4	96	48	0
STR	98	288	7
SI_	98	288	7	96	48	3
STR	99	144	1
SI_	99	144	1	96	48	5
STR	99	240	7
SI_	99	240	7	96	48	2
TAP	99	288	7
STR	100	0	3
SI_	100	0	3	96	48	6
TAP	100	48	3
TAP	100	192	2
TAP	100	240	3
STR	100	288	4
SCL	100	288	4	96	48	1
TAP	100	336	5
TAP	101	0	6
TAP	101	96	0
TAP	101	144	7
TAP	101	240	7
TAP	101	288	0
STR	102	0	1
SI_	102	0	1	96	48	5
STR	102	0	6
SI_	102	0	6	96	48	2
TAP	102	192	1
STR	102	240	0
SI_	102	240	0	96	24	4
TAP	102	336	2
TAP	103	0	3
TAP	103	96	6
STR	103	144	7
SI_	103	144	7	96	24	3
TAP	103	240	5
TAP	103	288	4
STR	104	0	4
SI_	104	0	4	96	48	0
STR	104	0	6
SI_	104	0	6	96	48	2
TAP	104	192	0
TAP	104	240	1
TAP	104	288	2
TAP	105	0	3
TAP	105	96	5
TAP	105	144	4
TAP	105	240	6
TAP	105	288	7
TAP	106	0	0
TAP	106	48	7
TAP	106	96	2
TAP	106	144	5

T_REC_TAP	260
T_REC_BRK	16
T_REC_XTP	0
T_REC_HLD	38
T_REC_XHO	0
T_REC_STR	137
T_REC_BST	0
T_REC_XST	0
T_REC_TTP	0
T_REC_THO	0
T_REC_SLD	137
T_REC_ALL	588
T_NUM_TAP	397
T_NUM_BRK	16
T_NUM_HLD	38
T_NUM_SLD	137
T_NUM_ALL	588
T_JUDGE_TAP	413
T_JUDGE_HLD	120
T_JUDGE_SLD	137
T_JUDGE_ALL	670
TTM_EACHPAIRS	59
TTM_SCR_TAP	198500
TTM_SCR_BRK	41600
TTM_SCR_HLD	38000
TTM_SCR_SLD	205500
TTM_SCR_ALL	483600
TTM_SCR_S	467550
TTM_SCR_SS	482000
TTM_RAT_ACV	10033

