VERSION	0.00.00	1.03.00
FES_MODE	0
BPM_DEF	200.000	200.000	205.001	200.000
MET_DEF	4	4
RESOLUTION	384
CLK_DEF	384
COMPATIBLE_CODE	MA2

BPM	0	0	200.000
BPM	54	0	205.001
BPM	68	0	201.000
BPM	72	192	205.001
BPM	76	192	204.000
BPM	84	192	203.000
BPM	88	192	200.000
BPM	91	192	201.000
BPM	96	192	203.000
BPM	100	192	202.000
MET	0	0	4	4

HLD	2	0	5	192
HLD	3	0	3	192
HLD	4	0	2	192
TAP	5	0	4
HLD	5	96	4	96
TAP	5	192	5
HLD	6	0	2	192
HLD	7	0	4	192
HLD	8	0	5	192
TAP	9	0	3
HLD	9	96	3	96
TAP	9	192	2
TAP	9	288	6
TAP	10	0	4
TAP	10	96	2
TAP	10	96	3
TAP	10	192	3
TAP	10	288	4
TAP	10	288	5
TAP	11	0	4
TAP	11	96	2
TAP	11	96	3
TAP	11	192	3
TAP	11	192	4
TAP	11	288	2
TAP	11	288	3
TAP	12	0	3
TAP	12	96	4
TAP	12	96	5
TAP	12	192	4
TAP	12	288	2
TAP	12	288	3
TAP	13	0	3
TAP	13	96	2
TAP	13	96	4
TAP	13	192	3
TAP	13	192	5
TAP	13	288	2
TAP	13	336	2
TAP	14	0	3
TAP	14	96	4
TAP	14	96	5
TAP	14	192	4
TAP	14	288	2
TAP	14	288	3
TAP	15	0	3
TAP	15	96	4
TAP	15	96	5
TAP	15	192	3
TAP	15	192	4
TAP	15	288	4
TAP	15	288	5
TAP	16	0	4
TAP	16	96	2
TAP	16	96	3
TAP	16	192	3
TAP	16	288	4
TAP	16	288	5
TAP	17	0	2
TAP	17	0	3
TAP	17	96	6
TAP	17	96	7
TAP	17	192	0
TAP	17	192	1
TAP	17	288	4
TAP	17	288	5
HLD	18	0	1	288
HLD	18	0	6	672
TAP	19	0	1
TAP	19	96	0
TAP	19	192	1
HLD	19	288	2	384
TAP	20	0	6
TAP	20	96	7
TAP	20	192	6
HLD	20	288	5	384
TAP	21	0	1
TAP	21	96	0
TAP	21	192	7
HLD	21	288	0	96
TAP	22	0	3
TAP	22	96	1
TAP	22	96	6
TAP	22	192	3
HLD	22	288	5	384
TAP	23	0	7
TAP	23	96	0
TAP	23	192	1
HLD	23	288	2	384
TAP	24	0	0
TAP	24	96	7
TAP	24	192	6
HLD	24	288	5	192
TAP	25	0	0
HLD	25	96	2	192
TAP	25	192	7
TAP	25	288	5
TAP	26	0	0
TAP	26	0	7
TAP	26	96	3
TAP	26	96	4
TAP	26	192	6
TAP	26	288	5
HLD	27	0	0	96
HLD	27	96	1	96
HLD	27	192	2	96
TAP	27	288	3
HLD	28	0	6	96
TAP	28	96	4
HLD	28	192	1	96
TAP	28	288	3
HLD	29	0	7	96
HLD	29	96	6	96
HLD	29	192	5	96
TAP	29	288	4
STR	30	0	0
SI_	30	0	0	96	48	4
TAP	30	192	7
TAP	30	288	3
STR	31	0	1
SI_	31	0	1	96	48	4
STR	31	192	6
SI_	31	192	6	96	48	3
STR	32	0	1
SCR	32	0	1	96	192	4
STR	32	0	5
SCR	32	0	5	96	192	0
STR	33	0	2
SCL	33	0	2	96	192	7
STR	33	0	6
SCL	33	0	6	96	192	3
HLD	34	0	1	192
TAP	34	144	5
TAP	34	192	5
TAP	34	288	4
TAP	35	0	3
TAP	35	96	2
TAP	35	288	7
TAP	35	336	7
STR	36	0	7
SI_	36	0	7	96	96	4
STR	36	192	0
SI_	36	192	0	96	96	3
TAP	37	0	6
STR	37	96	1
SCL	37	96	1	96	96	6
HLD	38	0	6	192
TAP	38	144	2
TAP	38	192	2
TAP	38	288	3
TAP	39	0	4
TAP	39	96	5
TAP	39	288	2
TAP	39	336	2
HLD	40	0	2	144
HLD	40	144	3	144
HLD	40	288	4	96
TAP	41	0	5
TAP	41	96	2
TAP	41	96	4
TAP	41	192	3
TAP	41	192	5
TAP	41	288	1
TAP	41	336	1
HLD	42	0	0	144
HLD	42	144	7	144
TAP	42	288	6
TAP	42	336	6
TAP	43	0	0
TAP	43	96	7
TAP	43	288	3
TAP	43	336	4
HLD	44	0	5	144
HLD	44	144	4	144
HLD	44	288	2	96
TAP	45	0	3
TAP	45	96	4
TAP	45	96	5
TAP	45	192	2
TAP	45	192	3
TAP	45	288	5
TAP	45	336	5
STR	46	0	5
SCR	46	0	5	96	96	0
TAP	46	288	2
TAP	46	336	2
STR	47	0	2
SCL	47	0	2	96	96	7
TAP	47	288	3
TAP	47	336	4
HLD	48	0	3	144
HLD	48	144	4	144
HLD	48	288	3	96
TAP	49	0	2
TAP	49	64	3
TAP	49	128	4
BRK	49	192	5
TAP	49	256	4
TAP	49	320	3
HLD	50	0	2	144
TAP	50	144	3
TAP	50	288	4
TAP	51	0	5
TAP	51	96	6
HLD	51	192	5	144
TAP	51	336	4
TAP	52	96	3
TAP	52	192	2
TAP	52	288	1
TAP	53	0	5
TAP	53	0	7
TAP	53	96	3
TAP	53	192	1
TAP	53	288	0
TAP	53	288	2
TAP	54	0	4
HLD	54	96	6	96
HLD	54	192	5	96
HLD	54	288	4	96
HLD	55	0	3	96
HLD	55	96	2	96
BRK	55	192	1
TAP	56	0	5
TAP	56	0	6
TAP	56	96	2
TAP	56	96	3
TAP	56	192	0
HLD	56	192	7	96
HLD	56	288	1	192
TAP	57	0	0
HLD	57	96	5	192
TAP	57	192	7
TAP	57	288	2
TAP	58	0	4
TAP	58	0	5
TAP	58	96	2
TAP	58	96	3
HLD	58	192	0	96
TAP	58	192	7
HLD	58	288	6	192
TAP	59	0	7
HLD	59	96	2	192
TAP	59	192	0
TAP	59	288	5
TAP	60	0	0
TAP	60	0	1
TAP	60	96	4
TAP	60	96	5
TAP	60	192	6
TAP	60	192	7
HLD	60	288	2	96
HLD	60	288	3	96
TAP	61	96	4
TAP	61	96	6
TAP	61	192	1
TAP	61	192	3
HLD	61	288	5	96
HLD	61	288	7	96
TAP	62	96	0
HLD	62	96	2	96
HLD	62	192	4	96
HLD	62	288	6	96
HLD	63	0	0	96
HLD	63	96	2	96
BRK	63	192	4
TAP	64	0	1
TAP	64	0	2
TAP	64	96	4
TAP	64	96	5
HLD	64	192	0	192
TAP	64	192	7
TAP	64	288	2
HLD	65	0	6	192
TAP	65	96	4
HLD	65	192	1	96
TAP	65	288	2
TAP	66	0	4
TAP	66	0	5
TAP	66	96	2
TAP	66	96	3
TAP	66	192	0
HLD	66	192	6	192
TAP	66	288	4
HLD	67	0	1	192
STR	67	96	7
SCL	67	96	7	96	96	4
STR	67	288	0
SCR	67	288	0	96	96	3
STR	68	96	4
SI_	68	96	4	96	384	7
HLD	70	0	2	192
HLD	70	192	5	288
TAP	70	336	4
HLD	71	96	2	96
BRK	71	192	3
TAP	72	0	1
TAP	72	0	2
TAP	72	96	4
TAP	72	96	5
TAP	72	192	0
HLD	72	192	7	192
TAP	72	288	6
HLD	73	0	1	192
TAP	73	96	2
HLD	73	192	5	192
TAP	73	288	7
HLD	74	0	3	192
TAP	74	96	0
HLD	74	192	4	192
TAP	74	288	6
HLD	75	0	2	192
TAP	75	96	1
TAP	75	192	5
TAP	76	0	4
TAP	76	0	7
TAP	76	96	1
TAP	76	96	2
TAP	76	192	0
TAP	76	192	3
TAP	76	288	5
TAP	76	288	6
TAP	77	96	0
TAP	77	96	7
STR	77	192	3
SI_	77	192	3	96	96	7
STR	77	192	4
SI_	77	192	4	96	96	0
TAP	78	96	0
TAP	78	96	7
TAP	78	192	6
TAP	78	192	7
TAP	78	288	0
TAP	78	288	1
TAP	79	0	4
TAP	79	0	5
TAP	79	96	2
TAP	79	96	3
BRK	79	192	3
BRK	79	192	4
TAP	80	0	5
TAP	80	0	6
TAP	80	96	2
TAP	80	96	3
HLD	80	192	0	192
TAP	80	192	7
TAP	80	288	2
HLD	81	0	5	192
TAP	81	96	6
HLD	81	192	2	192
TAP	81	288	1
HLD	82	0	4	192
TAP	82	96	0
HLD	82	192	3	192
TAP	82	288	7
HLD	83	0	5	192
TAP	83	96	7
STR	83	192	1
SCR	83	192	1	96	96	4
STR	84	0	6
SCL	84	0	6	96	96	3
STR	84	192	2
SCR	84	192	2	96	288	5
HLD	86	0	0	96
HLD	86	0	4	96
HLD	86	192	2	192
HLD	86	192	6	192
HLD	87	96	3	192
HLD	87	96	7	192
HLD	88	0	1	96
HLD	88	0	5	96
STR	88	192	2
SCL	88	192	2	96	288	7
STR	88	192	6
SCL	88	192	6	96	288	3
HLD	90	192	7	96
HLD	91	4	3	92
HLD	91	192	1	96
HLD	91	192	4	96
HLD	92	0	3	96
HLD	92	0	6	96
STR	92	192	1
SCR	92	192	1	96	288	4
STR	92	192	5
SCR	92	192	5	96	288	0
TAP	94	192	7
TAP	94	288	6
TAP	95	0	5
TAP	95	192	0
TAP	95	288	1
TAP	96	0	2
HLD	96	192	6	288
TAP	96	288	4
HLD	97	0	2	384
TAP	97	192	0
TAP	97	288	6
HLD	98	0	5	192
HLD	98	192	1	288
TAP	98	288	3
HLD	99	0	5	384
TAP	99	192	7
TAP	99	288	4
HLD	100	0	2	192
HLD	100	192	6	96
HLD	100	288	1	192
HLD	101	0	4	192
HLD	101	192	7	96
HLD	101	288	5	192
TAP	102	0	4
HLD	102	192	0	96
HLD	102	288	1	192
HLD	103	0	3	192
HLD	103	192	2	96
HLD	103	288	5	96
TAP	104	0	3
TAP	104	48	3
TAP	104	96	4
TAP	104	144	4

T_REC_TAP	253
T_REC_BRK	6
T_REC_XTP	0
T_REC_HLD	110
T_REC_XHO	0
T_REC_STR	24
T_REC_BST	0
T_REC_XST	0
T_REC_TTP	0
T_REC_THO	0
T_REC_SLD	24
T_REC_ALL	417
T_NUM_TAP	277
T_NUM_BRK	6
T_NUM_HLD	110
T_NUM_SLD	24
T_NUM_ALL	417
T_JUDGE_TAP	283
T_JUDGE_HLD	378
T_JUDGE_SLD	24
T_JUDGE_ALL	685
TTM_EACHPAIRS	78
TTM_SCR_TAP	138500
TTM_SCR_BRK	15600
TTM_SCR_HLD	110000
TTM_SCR_SLD	36000
TTM_SCR_ALL	300100
TTM_SCR_S	290550
TTM_SCR_SS	299500
TTM_RAT_ACV	10020

