VERSION	0.00.00	1.03.00
FES_MODE	0
BPM_DEF	200.000	200.000	205.001	200.000
MET_DEF	4	4
RESOLUTION	384
CLK_DEF	384
COMPATIBLE_CODE	MA2

BPM	0	0	200.000
BPM	54	0	205.001
BPM	68	0	201.000
BPM	72	192	205.001
BPM	76	192	204.000
BPM	84	0	203.000
BPM	88	192	200.000
BPM	91	192	201.000
BPM	96	192	203.000
BPM	100	192	202.000
MET	0	0	4	4

TAP	2	0	1
TAP	2	192	1
TAP	3	0	0
TAP	3	192	0
TAP	4	0	6
TAP	4	192	6
TAP	5	0	7
TAP	5	96	7
TAP	5	192	7
TAP	6	0	2
TAP	6	192	2
TAP	7	0	3
TAP	7	192	3
TAP	8	0	5
TAP	8	192	5
TAP	9	0	4
TAP	9	96	4
TAP	9	192	4
TAP	10	0	1
TAP	10	96	1
TAP	10	288	0
TAP	11	96	2
TAP	11	288	4
TAP	12	96	6
TAP	12	288	0
TAP	13	0	7
TAP	13	96	7
BRK	13	192	7
TAP	14	0	6
TAP	14	96	6
TAP	14	288	7
TAP	15	96	5
TAP	15	288	3
TAP	16	96	1
TAP	16	288	7
TAP	17	0	0
TAP	17	96	0
TAP	17	192	1
TAP	17	192	6
TAP	17	288	1
TAP	17	288	6
BRK	18	0	0
BRK	18	0	7
TAP	19	0	1
TAP	19	96	1
TAP	19	192	3
TAP	20	0	6
TAP	20	96	6
TAP	20	192	4
TAP	21	0	0
TAP	21	0	4
TAP	21	192	2
TAP	21	192	6
STR	22	0	5
SI_	22	0	5	96	192	0
STR	23	0	1
SI_	23	0	1	96	192	4
TAP	24	0	6
TAP	24	192	7
TAP	25	0	0
STR	25	96	0
SI_	25	96	0	96	192	4
TAP	26	0	6
TAP	26	96	6
TAP	26	192	7
TAP	27	0	1
TAP	27	96	1
TAP	27	192	0
TAP	28	0	3
TAP	28	96	4
TAP	28	192	3
HLD	29	0	1	96
HLD	29	192	6	96
STR	30	0	0
SI_	30	0	0	96	192	3
STR	31	0	7
SI_	31	0	7	96	192	4
TAP	32	0	3
TAP	32	96	2
TAP	32	192	1
TAP	32	288	0
TAP	33	0	7
TAP	33	96	6
BRK	33	192	5
HLD	34	0	1	192
TAP	35	0	5
TAP	35	96	5
TAP	35	192	4
TAP	35	192	6
HLD	36	0	6	192
TAP	37	0	2
TAP	37	96	2
TAP	37	192	1
TAP	37	192	3
TAP	38	0	0
TAP	38	192	1
TAP	38	192	7
TAP	39	0	4
TAP	39	96	4
TAP	39	192	3
TAP	39	192	5
TAP	40	0	7
TAP	40	192	0
TAP	40	192	6
TAP	41	0	3
TAP	41	96	3
TAP	41	192	2
TAP	41	192	4
STR	42	0	1
SI_	42	0	1	96	192	5
STR	43	0	6
SI_	43	0	6	96	192	2
TAP	44	0	1
TAP	44	192	6
TAP	45	0	0
TAP	45	96	7
TAP	45	192	0
STR	46	0	3
SI_	46	0	3	96	192	6
STR	47	0	7
SI_	47	0	7	96	192	2
TAP	48	0	3
TAP	48	192	4
TAP	49	0	1
TAP	49	0	2
TAP	49	192	0
TAP	49	192	7
HLD	50	0	5	288
HLD	50	0	6	288
HLD	51	192	1	288
HLD	53	0	0	144
HLD	53	288	7	144
TAP	54	192	3
TAP	54	288	3
TAP	55	0	4
TAP	55	96	4
TAP	55	192	1
TAP	55	192	6
TAP	56	0	7
TAP	56	96	7
HLD	56	192	1	144
TAP	56	336	0
TAP	57	96	7
BRK	57	192	7
TAP	58	0	0
TAP	58	96	0
HLD	58	192	6	144
TAP	58	336	7
TAP	59	96	0
BRK	59	192	0
TAP	60	0	2
TAP	60	96	5
TAP	60	192	0
STR	60	288	0
SI_	60	288	0	96	144	4
TAP	61	192	7
STR	61	288	7
SI_	61	288	7	96	144	3
TAP	62	192	1
TAP	62	288	6
TAP	63	0	1
TAP	63	0	2
TAP	63	96	2
TAP	63	96	3
BRK	63	192	3
BRK	63	192	4
TAP	64	0	2
TAP	64	96	2
HLD	64	192	7	144
TAP	64	336	0
TAP	65	96	7
TAP	65	192	0
TAP	66	0	5
TAP	66	96	5
HLD	66	192	0	144
TAP	66	336	7
TAP	67	96	6
TAP	67	192	2
TAP	67	192	5
TAP	68	0	1
TAP	68	0	6
STR	68	192	0
SCR	68	192	0	96	240	3
STR	68	192	7
SCL	68	192	7	96	240	4
HLD	70	0	0	192
HLD	70	336	7	240
TAP	72	0	1
TAP	72	96	6
HLD	72	192	1	144
TAP	72	336	7
STR	73	96	0
SI_	73	96	0	96	144	3
TAP	74	0	6
TAP	74	96	1
HLD	74	192	6	144
TAP	74	336	0
TAP	75	96	7
BRK	75	192	7
TAP	76	0	3
TAP	76	96	4
TAP	76	192	2
TAP	76	192	3
TAP	76	288	4
TAP	76	288	5
TAP	77	96	5
TAP	77	96	6
TAP	77	192	0
TAP	77	192	7
TAP	77	288	1
TAP	77	288	2
TAP	78	96	0
TAP	78	96	1
TAP	78	192	0
TAP	78	192	1
TAP	78	288	0
TAP	78	288	1
TAP	79	0	6
TAP	79	0	7
TAP	79	96	6
TAP	79	96	7
BRK	79	192	6
BRK	79	192	7
TAP	80	0	0
TAP	80	96	7
HLD	80	192	0	144
TAP	80	336	1
TAP	81	96	0
TAP	81	96	7
TAP	81	192	0
TAP	81	192	7
TAP	82	0	7
TAP	82	96	0
HLD	82	192	7	144
TAP	82	336	6
TAP	83	96	0
HLD	83	192	4	192
HLD	84	0	5	192
HLD	84	192	6	384
HLD	86	0	0	192
HLD	86	0	7	192
HLD	87	96	2	288
HLD	87	96	5	288
BRK	88	192	0
BRK	88	192	7
TAP	90	192	2
TAP	91	0	5
TAP	91	192	0
TAP	91	192	7
TAP	92	0	1
TAP	92	0	6
TAP	92	192	0
TAP	92	192	7
TAP	94	192	1
TAP	94	288	1
TAP	95	0	0
TAP	95	96	0
TAP	95	192	7
TAP	95	288	7
BRK	96	0	6
TAP	96	192	2
TAP	97	0	1
TAP	97	0	3
TAP	97	192	5
TAP	98	0	4
TAP	98	0	6
HLD	98	192	1	192
HLD	99	192	6	192
STR	100	192	1
SI_	100	192	1	96	144	6
STR	101	192	5
SI_	101	192	5	96	144	2
STR	102	192	0
SI_	102	192	0	96	144	4
STR	103	192	7
SI_	103	192	7	96	144	3
BRK	104	192	0
BRK	104	192	7

T_REC_TAP	198
T_REC_BRK	16
T_REC_XTP	0
T_REC_HLD	28
T_REC_XHO	0
T_REC_STR	18
T_REC_BST	0
T_REC_XST	0
T_REC_TTP	0
T_REC_THO	0
T_REC_SLD	18
T_REC_ALL	278
T_NUM_TAP	216
T_NUM_BRK	16
T_NUM_HLD	28
T_NUM_SLD	18
T_NUM_ALL	278
T_JUDGE_TAP	232
T_JUDGE_HLD	113
T_JUDGE_SLD	18
T_JUDGE_ALL	363
TTM_EACHPAIRS	43
TTM_SCR_TAP	108000
TTM_SCR_BRK	41600
TTM_SCR_HLD	28000
TTM_SCR_SLD	27000
TTM_SCR_ALL	204600
TTM_SCR_S	196950
TTM_SCR_SS	203000
TTM_RAT_ACV	10078

