VERSION	0.00.00	1.03.00
FES_MODE	0
BPM_DEF	200.000	200.000	205.001	200.000
MET_DEF	4	4
RESOLUTION	384
CLK_DEF	384
COMPATIBLE_CODE	MA2

BPM	0	0	200.000
BPM	54	0	205.001
BPM	68	0	201.000
BPM	72	192	205.001
BPM	76	192	204.000
BPM	84	192	203.000
BPM	88	192	200.000
BPM	91	192	201.000
BPM	96	192	203.000
BPM	100	192	202.000
MET	0	0	4	4

TAP	2	0	6
TAP	3	0	7
TAP	4	0	0
TAP	5	0	1
TAP	5	192	1
TAP	6	0	2
TAP	7	0	3
TAP	8	0	4
TAP	9	0	5
TAP	9	192	5
TAP	10	0	6
TAP	10	192	7
TAP	11	0	6
TAP	11	192	7
TAP	12	0	0
TAP	12	192	1
TAP	13	0	0
TAP	13	192	1
TAP	14	0	2
TAP	14	192	2
TAP	15	0	4
TAP	15	192	4
TAP	16	0	3
TAP	16	192	3
TAP	17	0	5
TAP	17	192	5
BRK	18	0	5
TAP	19	0	6
TAP	20	0	7
TAP	21	0	0
STR	22	0	0
SI_	22	0	0	96	384	3
STR	24	0	7
SI_	24	0	7	96	384	4
TAP	26	0	3
TAP	27	0	2
TAP	28	0	1
TAP	29	0	0
TAP	30	0	7
TAP	31	0	6
TAP	32	0	5
TAP	32	192	5
TAP	33	0	4
TAP	33	192	3
TAP	33	192	4
TAP	34	0	3
TAP	35	0	2
TAP	36	0	1
TAP	37	0	0
TAP	38	0	7
TAP	38	192	6
TAP	40	0	0
TAP	40	192	1
HLD	42	0	1	192
HLD	43	0	0	192
HLD	44	0	6	192
HLD	45	0	7	192
TAP	46	0	0
TAP	46	0	7
TAP	47	0	1
TAP	47	0	6
TAP	48	0	2
TAP	48	0	5
TAP	49	0	3
TAP	49	0	4
TAP	49	192	3
TAP	49	192	4
BRK	50	0	3
BRK	50	0	4
STR	51	192	1
SCL	51	192	1	96	384	6
TAP	54	192	2
TAP	54	192	5
TAP	55	0	1
TAP	55	0	6
TAP	55	192	0
TAP	55	192	7
TAP	56	192	0
TAP	57	0	0
TAP	57	192	1
TAP	58	0	1
TAP	58	192	2
TAP	59	0	2
TAP	59	192	3
TAP	59	192	4
TAP	60	192	3
TAP	60	288	3
TAP	61	192	4
TAP	61	288	4
TAP	62	192	5
TAP	63	0	6
BRK	63	192	7
TAP	64	192	0
TAP	64	192	7
TAP	65	192	1
TAP	65	192	6
TAP	66	192	1
TAP	66	192	6
TAP	67	192	0
TAP	67	192	7
TAP	68	0	0
TAP	68	0	7
HLD	68	192	0	384
HLD	68	192	7	384
TAP	70	0	7
TAP	70	192	0
TAP	71	0	6
BRK	71	192	1
TAP	72	192	1
TAP	73	0	0
TAP	73	192	7
TAP	74	0	6
TAP	74	192	5
TAP	75	0	4
TAP	75	192	3
TAP	75	192	4
TAP	76	192	4
TAP	76	288	4
TAP	77	192	3
TAP	77	288	3
TAP	78	192	2
TAP	78	192	5
TAP	79	0	1
TAP	79	0	6
BRK	79	192	0
BRK	79	192	7
TAP	80	192	7
TAP	81	0	6
TAP	81	192	5
TAP	82	0	4
TAP	82	192	3
TAP	83	0	2
TAP	83	192	0
TAP	83	192	1
TAP	84	0	0
TAP	84	0	1
HLD	84	192	0	384
HLD	84	192	7	384
HLD	86	0	7	192
TAP	87	0	7
HLD	87	192	0	192
STR	88	192	0
SI_	88	192	0	96	384	3
STR	90	192	7
SI_	90	192	7	96	384	4
STR	92	192	1
SI_	92	192	1	96	384	6
STR	94	192	5
SI_	94	192	5	96	384	2
TAP	96	192	0
TAP	97	192	1
TAP	98	192	2
TAP	99	192	3
TAP	100	192	4
TAP	101	192	5
TAP	102	192	6
TAP	103	192	7
BRK	104	192	0

T_REC_TAP	126
T_REC_BRK	8
T_REC_XTP	0
T_REC_HLD	10
T_REC_XHO	0
T_REC_STR	7
T_REC_BST	0
T_REC_XST	0
T_REC_TTP	0
T_REC_THO	0
T_REC_SLD	7
T_REC_ALL	158
T_NUM_TAP	133
T_NUM_BRK	8
T_NUM_HLD	10
T_NUM_SLD	7
T_NUM_ALL	158
T_JUDGE_TAP	141
T_JUDGE_HLD	56
T_JUDGE_SLD	7
T_JUDGE_ALL	204
TTM_EACHPAIRS	24
TTM_SCR_TAP	66500
TTM_SCR_BRK	20800
TTM_SCR_HLD	10000
TTM_SCR_SLD	10500
TTM_SCR_ALL	107800
TTM_SCR_S	103800
TTM_SCR_SS	107000
TTM_RAT_ACV	10074

