VERSION	0.00.00	1.03.00
FES_MODE	0
BPM_DEF	195.000	195.000	195.000	195.000
MET_DEF	4	4
RESOLUTION	384
CLK_DEF	384
COMPATIBLE_CODE	MA2

BPM	0	0	195.000
MET	0	0	4	4

STR	1	0	7
SCR	1	0	7	96	192	2
TAP	1	96	7
STR	1	192	2
SCR	1	192	2	96	192	5
STR	3	0	6
SCL	3	0	6	96	192	3
TAP	3	96	6
STR	3	192	3
SCL	3	192	3	96	192	0
STR	5	0	0
SCL	5	0	0	96	192	5
TAP	5	96	0
STR	5	192	5
SCL	5	192	5	96	192	2
STR	7	0	1
SCR	7	0	1	96	192	4
TAP	7	96	1
STR	7	192	4
SCR	7	192	4	96	192	7
HLD	9	0	5	96
HLD	9	96	1	192
TAP	9	192	5
TAP	9	240	6
TAP	9	288	7
HLD	9	336	0	96
TAP	10	48	2
TAP	10	96	3
TAP	10	192	1
TAP	10	192	4
TAP	10	240	0
TAP	10	240	5
TAP	10	288	6
TAP	10	288	7
HLD	11	0	2	96
HLD	11	96	6	192
TAP	11	192	2
TAP	11	240	1
TAP	11	288	0
HLD	11	336	7	96
TAP	12	48	5
TAP	12	96	4
TAP	12	192	3
TAP	12	192	6
TAP	12	240	2
TAP	12	240	7
TAP	12	288	0
TAP	12	288	1
STR	13	0	1
SI_	13	0	1	96	72	5
TAP	13	96	1
TAP	13	192	6
TAP	13	240	7
TAP	13	288	0
HLD	13	336	7	96
TAP	14	48	5
HLD	14	96	7	192
TAP	14	192	1
TAP	14	240	1
TAP	14	288	1
STR	15	0	6
SI_	15	0	6	96	72	2
TAP	15	96	6
TAP	15	192	1
TAP	15	240	0
TAP	15	288	7
HLD	15	336	0	96
TAP	16	48	2
HLD	16	96	0	192
TAP	16	192	6
TAP	16	240	6
BRK	16	288	6
HLD	17	0	0	96
HLD	17	96	1	96
HLD	17	192	2	96
TAP	17	240	3
TAP	17	288	4
HLD	17	336	5	96
TAP	18	48	1
STR	18	96	3
SCL	18	96	3	96	48	0
STR	18	192	7
SCL	18	192	7	96	48	4
TAP	18	240	7
HLD	19	0	3	96
TAP	19	0	7
HLD	19	96	7	96
TAP	19	192	0
TAP	19	240	6
TAP	19	288	2
TAP	19	336	4
TAP	20	48	1
TAP	20	48	5
TAP	20	96	3
TAP	20	96	7
STR	20	192	0
SCL	20	192	0	96	48	5
TAP	20	240	0
TAP	20	240	5
STR	21	0	0
SI_	21	0	0	96	48	3
STR	21	0	7
SI_	21	0	7	96	48	4
TAP	21	192	6
TAP	21	240	7
TAP	21	288	0
HLD	21	336	1	144
TAP	22	48	5
HLD	22	96	5	96
TAP	22	192	7
TAP	22	240	7
TAP	22	288	3
TAP	22	336	3
STR	23	0	3
SI_	23	0	3	96	48	0
STR	23	0	4
SI_	23	0	4	96	48	7
TAP	23	192	2
TAP	23	240	3
TAP	23	288	4
HLD	23	336	2	144
TAP	23	336	5
TAP	24	48	0
TAP	24	96	6
TAP	24	192	1
TAP	24	192	2
TAP	24	240	0
TAP	24	240	7
TAP	24	288	5
TAP	24	288	6
STR	25	0	0
SI_	25	0	0	96	48	4
STR	25	192	2
SI_	25	192	2	96	48	6
STR	26	0	5
SI_	26	0	5	96	96	1
TAP	26	288	7
TAP	26	336	0
TAP	27	96	1
TAP	27	96	6
STR	27	192	5
SI_	27	192	5	96	288	1
TAP	27	240	4
TAP	27	240	6
HLD	27	336	5	240
TAP	28	288	5
TAP	29	0	0
STR	29	0	7
SI_	29	0	7	96	48	3
TAP	29	192	2
STR	29	192	3
SI_	29	192	3	96	48	0
STR	30	0	0
SI_	30	0	0	96	96	5
HLD	30	0	4	192
STR	30	288	0
SCL	30	288	0	96	192	5
HLD	30	336	0	240
STR	31	288	4
SCL	31	288	4	96	192	1
HLD	31	336	4	240
BRK	32	288	0
HLD	33	0	0	192
HLD	33	0	7	192
TAP	33	288	2
TAP	33	288	5
HLD	33	336	1	144
HLD	33	336	6	144
STR	34	192	2
SCR	34	192	2	96	96	5
STR	34	288	5
SCR	34	288	5	96	96	0
STR	35	0	0
SCR	35	0	0	96	96	3
STR	35	96	3
SI_	35	96	3	96	96	7
TAP	35	288	6
TAP	35	336	6
TAP	36	96	0
TAP	36	192	0
TAP	36	192	1
TAP	36	288	6
TAP	36	288	7
HLD	37	0	7	96
HLD	37	96	0	96
HLD	37	192	1	96
HLD	37	288	2	192
TAP	38	0	3
HLD	38	96	1	96
HLD	38	192	0	96
TAP	38	288	7
HLD	39	0	6	96
HLD	39	96	5	96
HLD	39	192	4	96
HLD	39	288	3	192
TAP	40	0	2
HLD	40	96	4	96
HLD	40	192	5	96
BRK	40	288	6
TAP	41	0	0
TAP	41	0	7
TAP	41	96	3
TAP	41	96	4
TAP	41	192	5
TAP	41	240	4
TAP	41	288	2
TAP	41	336	3
TAP	42	48	6
TAP	42	96	7
TAP	42	192	0
TAP	42	216	1
TAP	42	240	2
TAP	42	264	3
TAP	42	288	4
TAP	43	0	3
TAP	43	0	4
TAP	43	96	0
TAP	43	96	7
TAP	43	192	0
TAP	43	240	1
TAP	43	288	7
TAP	43	336	6
TAP	44	48	0
TAP	44	96	4
TAP	44	144	2
TAP	44	192	0
TAP	44	192	4
TAP	44	240	1
TAP	44	240	5
TAP	44	288	2
TAP	44	288	6
HLD	45	0	1	96
TAP	45	0	7
HLD	45	96	3	96
TAP	45	192	5
TAP	45	240	3
TAP	45	288	1
TAP	45	336	7
TAP	46	48	1
HLD	46	96	0	96
TAP	46	192	6
TAP	46	216	5
TAP	46	240	4
TAP	46	264	3
TAP	46	288	2
STR	47	0	0
SI_	47	0	0	96	48	4
STR	47	0	2
SI_	47	0	2	96	48	5
TAP	47	192	5
TAP	47	240	4
TAP	47	288	2
TAP	47	336	3
TAP	48	48	2
TAP	48	48	3
TAP	48	96	4
TAP	48	144	4
TAP	48	144	5
TAP	48	192	3
TAP	48	192	6
TAP	48	240	2
TAP	48	240	7
BRK	48	288	0
BRK	48	288	1
HLD	49	0	2	192
HLD	49	192	0	192
STR	50	0	7
SCL	50	0	7	96	96	4
TAP	50	288	4
TAP	50	336	0
TAP	51	96	2
TAP	51	96	6
TAP	51	192	3
STR	51	240	7
SCR	51	240	7	96	192	2
HLD	51	336	5	240
TAP	52	288	4
HLD	53	0	3	192
HLD	53	192	2	192
HLD	54	0	1	192
STR	54	192	0
SI_	54	192	0	96	96	4
HLD	54	288	1	288
STR	55	240	5
SI_	55	240	5	96	144	2
TAP	55	288	4
HLD	55	336	6	144
TAP	56	192	0
TAP	56	192	1
TAP	57	0	6
TAP	57	0	7
TAP	57	96	6
TAP	57	192	5
TAP	57	192	7
TAP	57	336	1
TAP	57	336	2
TAP	58	96	0
TAP	58	192	2
TAP	58	192	4
HLD	58	336	2	96
TAP	59	48	1
TAP	59	96	2
TAP	59	144	3
TAP	59	192	4
TAP	59	240	5
TAP	59	288	6
HLD	59	336	7	96
TAP	60	48	3
TAP	60	96	2
TAP	60	96	4
TAP	60	192	5
TAP	60	192	7
TAP	60	288	3
TAP	60	288	7
TAP	61	0	6
TAP	61	0	7
BRK	61	96	3
TAP	61	192	0
TAP	61	192	1
BRK	61	288	4
TAP	62	0	6
TAP	62	0	7
BRK	62	96	2
TAP	62	192	0
TAP	62	192	1
BRK	62	288	5
TAP	63	0	7
TAP	63	96	5
TAP	63	192	3
TAP	63	288	1
TAP	64	0	0
TAP	64	48	2
TAP	64	96	4
TAP	64	144	6
TAP	64	192	7
TAP	64	216	6
TAP	64	240	5
TAP	64	264	4
TAP	64	288	3
TAP	64	312	2
TAP	64	336	1
TAP	64	360	0
HLD	65	0	7	96
HLD	65	96	6	192
HLD	65	192	5	96
HLD	65	336	0	144
HLD	66	96	1	192
HLD	66	192	2	96
TAP	66	336	0
TAP	66	336	1
TAP	67	48	2
TAP	67	96	3
TAP	67	144	4
TAP	67	144	5
TAP	67	192	6
TAP	67	240	7
TAP	67	288	6
TAP	67	288	7
TAP	67	336	5
TAP	68	0	4
TAP	68	48	2
TAP	68	48	3
TAP	68	96	1
TAP	68	144	0
TAP	68	192	6
TAP	68	192	7
TAP	68	240	4
TAP	68	240	5
TAP	68	288	2
TAP	68	288	3
TAP	69	0	0
TAP	69	0	1
TAP	69	96	2
STR	69	96	3
SCR	69	96	3	96	48	6
TAP	69	336	6
TAP	69	336	7
STR	70	96	4
SCL	70	96	4	96	48	1
TAP	70	96	5
HLD	70	336	1	96
TAP	71	48	5
TAP	71	96	4
TAP	71	144	3
TAP	71	192	2
TAP	71	240	3
TAP	71	288	4
HLD	71	336	5	96
TAP	72	48	6
TAP	72	96	5
TAP	72	144	4
TAP	72	192	3
TAP	72	240	2
STR	73	0	7
SCR	73	0	7	96	96	2
STR	73	96	2
SCR	73	96	2	96	48	5
TAP	73	96	7
TAP	73	336	5
STR	74	48	0
SCL	74	48	0	96	48	5
STR	74	96	5
SCL	74	96	5	96	48	2
HLD	74	336	6	96
HLD	75	48	7	48
HLD	75	96	6	48
HLD	75	144	7	48
HLD	75	192	6	48
HLD	75	240	5	48
STR	75	288	4
SI_	75	288	4	96	96	0
TAP	75	336	4
STR	76	0	0
SCR	76	0	0	96	96	3
STR	76	96	3
SI_	76	96	3	96	96	7
STR	76	192	7
SCL	76	192	7	96	48	4
STR	77	0	0
SI_	77	0	0	96	72	4
STR	77	192	6
SI_	77	192	6	96	72	1
STR	78	0	3
SI_	78	0	3	96	72	7
STR	78	192	2
SI_	78	192	2	96	72	6
STR	78	288	2
SCL	78	288	2	96	96	7
STR	79	0	7
SCL	79	0	7	96	96	4
STR	79	96	4
SCL	79	96	4	96	96	1
STR	79	192	1
SI_	79	192	1	96	72	5
HLD	80	0	1	96
HLD	80	0	6	96
STR	80	192	0
SI_	80	192	0	96	48	4
STR	80	192	7
SI_	80	192	7	96	48	3
TAP	81	0	0
TAP	81	0	1
STR	81	96	2
SCL	81	96	2	96	48	7
STR	81	96	7
SCL	81	96	7	96	48	4
TAP	81	336	4
TAP	81	336	5
STR	82	96	3
SCL	82	96	3	96	48	0
STR	82	96	6
SCL	82	96	6	96	48	3
TAP	82	336	6
TAP	82	336	7
TAP	83	48	5
TAP	83	96	4
TAP	83	144	2
TAP	83	144	3
TAP	83	192	1
TAP	83	240	0
TAP	83	288	0
TAP	83	288	1
TAP	83	336	2
TAP	84	0	3
TAP	84	48	4
TAP	84	48	5
TAP	84	96	6
TAP	84	144	7
TAP	84	192	0
TAP	84	192	1
TAP	84	240	2
TAP	84	240	3
TAP	84	288	4
TAP	84	288	5
TAP	85	0	6
TAP	85	0	7
STR	85	96	4
SCL	85	96	4	96	48	1
TAP	85	96	5
TAP	85	336	0
TAP	85	336	1
TAP	86	96	2
STR	86	96	3
SCR	86	96	3	96	48	6
HLD	86	336	6	96
TAP	87	48	2
TAP	87	96	3
TAP	87	144	4
TAP	87	192	5
TAP	87	240	4
TAP	87	288	3
HLD	87	336	2	96
TAP	88	48	1
TAP	88	96	2
TAP	88	144	3
TAP	88	192	4
TAP	88	240	5
STR	89	0	0
SCL	89	0	0	96	96	5
TAP	89	96	0
STR	89	96	5
SCL	89	96	5	96	48	2
TAP	89	336	6
STR	90	48	6
SCR	90	48	6	96	48	1
STR	90	96	1
SCR	90	96	1	96	48	4
TAP	90	96	6
HLD	90	336	1	96
HLD	91	48	0	48
HLD	91	96	1	48
HLD	91	144	0	48
HLD	91	192	1	48
HLD	91	240	2	48
STR	91	288	3
SI_	91	288	3	96	96	7
TAP	91	336	3
STR	92	0	7
SCL	92	0	7	96	96	4
STR	92	96	4
SI_	92	96	4	96	96	0
STR	92	192	0
SCR	92	192	0	96	96	3
STR	93	0	7
SI_	93	0	7	96	72	3
STR	93	192	1
SI_	93	192	1	96	72	6
STR	94	0	4
SI_	94	0	4	96	72	0
STR	94	192	5
SI_	94	192	5	96	72	1
STR	94	288	5
SCR	94	288	5	96	96	0
STR	95	0	0
SCR	95	0	0	96	96	3
STR	95	96	3
SCR	95	96	3	96	96	6
STR	95	192	6
SI_	95	192	6	96	96	2
STR	95	288	2
SCL	95	288	2	96	96	7
TAP	96	192	0
BRK	96	240	0

T_REC_TAP	299
T_REC_BRK	10
T_REC_XTP	0
T_REC_HLD	76
T_REC_XHO	0
T_REC_STR	79
T_REC_BST	0
T_REC_XST	0
T_REC_TTP	0
T_REC_THO	0
T_REC_SLD	79
T_REC_ALL	543
T_NUM_TAP	378
T_NUM_BRK	10
T_NUM_HLD	76
T_NUM_SLD	79
T_NUM_ALL	543
T_JUDGE_TAP	388
T_JUDGE_HLD	196
T_JUDGE_SLD	79
T_JUDGE_ALL	663
TTM_EACHPAIRS	84
TTM_SCR_TAP	189000
TTM_SCR_BRK	26000
TTM_SCR_HLD	76000
TTM_SCR_SLD	118500
TTM_SCR_ALL	409500
TTM_SCR_S	396250
TTM_SCR_SS	408500
TTM_RAT_ACV	10024

