VERSION	0.00.00	1.03.00
FES_MODE	0
BPM_DEF	195.000	195.000	195.000	195.000
MET_DEF	4	4
RESOLUTION	384
CLK_DEF	384
COMPATIBLE_CODE	MA2

BPM	0	0	195.000
MET	0	0	4	4

STR	1	0	3
SI_	1	0	3	96	288	0
STR	3	0	6
SI_	3	0	6	96	288	1
HLD	5	0	1	672
HLD	5	0	6	672
STR	7	0	3
SI_	7	0	3	96	288	0
STR	7	0	4
SI_	7	0	4	96	288	7
TAP	9	0	7
STR	9	96	0
SI_	9	96	0	96	96	4
TAP	10	0	4
TAP	10	96	3
TAP	10	192	2
TAP	10	288	1
TAP	11	0	0
STR	11	96	7
SI_	11	96	7	96	96	3
TAP	12	0	3
TAP	12	96	4
TAP	12	192	5
TAP	12	288	6
HLD	13	0	7	96
TAP	13	96	6
TAP	13	192	5
TAP	14	0	0
TAP	14	96	1
TAP	14	192	2
TAP	14	288	3
HLD	15	0	0	96
TAP	15	96	1
TAP	15	192	2
TAP	16	0	7
TAP	16	96	6
TAP	16	192	5
TAP	16	288	4
TAP	17	0	0
STR	17	96	2
SCR	17	96	2	96	192	5
TAP	18	0	6
TAP	18	96	5
TAP	18	192	4
TAP	18	288	3
TAP	19	0	7
STR	19	96	5
SCL	19	96	5	96	192	2
TAP	20	0	1
TAP	20	96	2
TAP	20	192	3
TAP	20	288	4
STR	21	0	1
SCL	21	0	1	96	192	6
STR	22	0	5
SCL	22	0	5	96	192	2
TAP	23	0	6
STR	23	96	1
SI_	23	96	1	96	96	4
TAP	24	0	1
STR	24	96	2
SI_	24	96	2	96	96	7
STR	25	0	3
SCR	25	0	3	96	192	6
STR	26	0	3
SCL	26	0	3	96	192	0
STR	27	0	6
SCL	27	0	6	96	192	3
STR	28	0	0
SI_	28	0	0	96	96	3
TAP	28	288	1
TAP	28	288	3
TAP	29	0	2
TAP	29	0	6
STR	29	192	3
SI_	29	192	3	96	192	0
STR	30	288	0
SI_	30	288	0	96	192	3
STR	31	288	0
SCR	31	288	0	96	192	3
STR	31	288	7
SCL	31	288	7	96	192	4
STR	33	0	3
SCR	33	0	3	96	192	6
STR	33	0	4
SCL	33	0	4	96	192	1
HLD	34	0	1	192
HLD	34	0	6	192
TAP	35	0	0
TAP	35	0	7
STR	35	192	1
SI_	35	192	1	96	96	4
STR	35	192	6
SI_	35	192	6	96	96	3
STR	36	192	5
SCL	36	192	5	96	192	2
STR	37	192	1
SCL	37	192	1	96	192	6
STR	38	192	5
SCR	38	192	5	96	192	0
STR	39	192	1
SCR	39	192	1	96	192	4
TAP	41	0	2
TAP	41	96	3
TAP	41	192	4
TAP	41	288	5
HLD	42	0	6	288
TAP	42	96	5
TAP	42	192	4
TAP	42	288	3
STR	43	0	6
SI_	43	0	6	96	96	3
STR	43	192	1
SI_	43	192	1	96	96	4
STR	44	0	6
SI_	44	0	6	96	96	3
TAP	44	240	1
TAP	44	288	1
TAP	45	0	1
TAP	45	0	6
TAP	45	96	0
TAP	45	96	7
STR	45	192	1
SI_	45	192	1	96	96	4
STR	45	192	6
SI_	45	192	6	96	96	3
TAP	46	192	3
TAP	46	192	7
STR	47	0	2
SCL	47	0	2	96	192	7
STR	47	0	6
SCL	47	0	6	96	192	3
TAP	48	240	1
TAP	48	240	6
TAP	48	288	2
TAP	48	288	5
HLD	49	0	6	576
STR	49	192	0
SI_	49	192	0	96	288	3
STR	51	0	4
SCL	51	0	4	96	144	1
STR	52	0	3
SCR	52	0	3	96	144	6
TAP	52	288	6
TAP	53	0	1
STR	53	192	0
SI_	53	192	0	96	192	3
STR	54	192	4
SI_	54	192	4	96	192	7
STR	56	0	1
SCL	56	0	1	96	192	6
HLD	57	0	0	96
STR	57	96	1
SCR	57	96	1	96	96	4
HLD	58	0	7	96
STR	58	96	6
SCL	58	96	6	96	96	3
STR	59	0	3
SCR	59	0	3	96	192	6
STR	59	0	4
SCL	59	0	4	96	192	1
TAP	60	0	6
TAP	60	96	1
TAP	60	192	0
STR	60	288	3
SI_	60	288	3	96	192	7
STR	62	0	6
SI_	62	0	6	96	192	1
STR	63	0	0
SCR	63	0	0	96	288	3
STR	63	0	5
SCR	63	0	5	96	288	0
TAP	65	0	0
TAP	65	0	7
TAP	65	96	5
TAP	65	192	0
TAP	65	192	7
TAP	65	288	2
TAP	66	0	0
TAP	66	0	7
TAP	66	96	5
TAP	66	192	0
TAP	66	192	7
TAP	66	288	2
TAP	67	0	6
STR	67	96	7
SCR	67	96	7	96	96	2
TAP	68	0	2
STR	68	96	3
SCR	68	96	3	96	96	6
HLD	69	0	6	96
STR	69	96	5
SI_	69	96	5	96	96	2
HLD	70	0	1	96
STR	70	96	2
SI_	70	96	2	96	96	5
STR	71	0	7
SCL	71	0	7	96	96	4
STR	71	192	3
SCL	71	192	3	96	96	0
TAP	72	0	7
STR	72	96	5
SI_	72	96	5	96	96	2
HLD	73	0	0	96
HLD	73	0	7	96
TAP	73	192	1
TAP	73	192	6
TAP	74	0	2
TAP	74	0	5
TAP	74	96	3
TAP	74	96	4
TAP	74	192	2
TAP	74	192	5
TAP	75	0	1
TAP	75	0	6
STR	75	96	6
SCL	75	96	6	96	96	3
TAP	75	96	7
TAP	76	0	1
STR	76	96	2
SI_	76	96	2	96	96	5
HLD	77	0	6	384
TAP	77	192	5
HLD	78	0	1	192
STR	78	192	5
SCL	78	192	5	96	192	2
STR	79	192	1
SCL	79	192	1	96	192	6
TAP	80	192	3
TAP	80	192	4
TAP	80	288	0
TAP	80	288	7
TAP	81	0	6
STR	81	96	0
SI_	81	96	0	96	96	3
TAP	82	0	0
TAP	82	0	7
TAP	82	96	5
TAP	82	192	0
TAP	82	192	7
TAP	83	0	6
STR	83	96	7
SCR	83	96	7	96	96	2
TAP	84	0	2
STR	84	96	3
SCR	84	96	3	96	96	6
HLD	85	0	6	96
STR	85	96	5
SI_	85	96	5	96	96	2
HLD	86	0	1	96
STR	86	96	2
SI_	86	96	2	96	96	5
STR	87	0	7
SCL	87	0	7	96	96	4
STR	87	192	3
SCL	87	192	3	96	96	0
TAP	88	0	7
STR	88	96	5
SI_	88	96	5	96	96	2
HLD	89	0	0	96
HLD	89	0	7	96
TAP	89	192	1
TAP	89	192	6
TAP	90	0	2
TAP	90	0	5
TAP	90	96	3
TAP	90	96	4
TAP	90	192	2
TAP	90	192	5
TAP	91	0	1
TAP	91	0	6
STR	91	96	6
SCL	91	96	6	96	96	3
TAP	91	96	7
TAP	92	0	1
STR	92	96	2
SI_	92	96	2	96	96	5
TAP	93	0	0
STR	93	0	1
SCR	93	0	1	96	192	4
STR	94	0	5
SCL	94	0	5	96	192	2
TAP	94	0	6
STR	95	0	1
SCL	95	0	1	96	192	6
STR	96	0	7
SI_	96	0	7	96	96	4
BRK	96	192	0
BRK	96	240	0

T_REC_TAP	119
T_REC_BRK	2
T_REC_XTP	0
T_REC_HLD	20
T_REC_XHO	0
T_REC_STR	74
T_REC_BST	0
T_REC_XST	0
T_REC_TTP	0
T_REC_THO	0
T_REC_SLD	74
T_REC_ALL	289
T_NUM_TAP	193
T_NUM_BRK	2
T_NUM_HLD	20
T_NUM_SLD	74
T_NUM_ALL	289
T_JUDGE_TAP	195
T_JUDGE_HLD	90
T_JUDGE_SLD	74
T_JUDGE_ALL	359
TTM_EACHPAIRS	42
TTM_SCR_TAP	96500
TTM_SCR_BRK	5200
TTM_SCR_HLD	20000
TTM_SCR_SLD	111000
TTM_SCR_ALL	232700
TTM_SCR_S	225550
TTM_SCR_SS	232500
TTM_RAT_ACV	10008

