VERSION	0.00.00	1.03.00
FES_MODE	0
BPM_DEF	195.000	195.000	195.000	195.000
MET_DEF	4	4
RESOLUTION	384
CLK_DEF	384
COMPATIBLE_CODE	MA2

BPM	0	0	195.000
MET	0	0	4	4

TAP	1	0	2
HLD	1	96	2	480
TAP	3	0	5
HLD	3	96	5	480
TAP	5	0	2
STR	5	96	2
SCR	5	96	2	96	384	5
TAP	7	0	6
STR	7	96	6
SCR	7	96	6	96	384	1
TAP	9	0	0
TAP	9	192	0
TAP	10	0	2
TAP	10	192	2
TAP	11	0	4
TAP	11	192	4
TAP	12	0	6
TAP	12	192	6
TAP	13	0	7
TAP	13	192	7
TAP	14	0	5
TAP	14	192	5
TAP	15	0	3
TAP	15	192	3
TAP	16	0	1
BRK	16	192	1
TAP	17	0	0
TAP	17	96	0
TAP	18	0	2
TAP	18	96	2
TAP	19	0	4
TAP	19	96	4
TAP	20	0	6
TAP	20	96	6
TAP	21	0	7
TAP	21	96	7
TAP	22	0	5
TAP	22	96	5
TAP	23	0	3
TAP	23	96	3
TAP	24	0	1
TAP	24	96	1
BRK	24	192	1
STR	25	0	1
SCR	25	0	1	96	192	4
HLD	26	0	6	192
TAP	27	0	1
TAP	27	96	1
TAP	27	192	4
TAP	28	0	6
TAP	28	96	6
TAP	28	192	3
STR	29	0	6
SCL	29	0	6	96	192	3
HLD	30	0	1	192
TAP	31	0	6
TAP	31	96	6
TAP	31	192	3
TAP	32	0	1
TAP	32	96	1
TAP	32	192	4
STR	33	0	0
SI_	33	0	0	96	288	5
TAP	34	192	4
TAP	34	288	4
STR	35	0	4
SI_	35	0	4	96	288	1
TAP	36	192	0
TAP	36	288	0
STR	37	0	0
SCL	37	0	0	96	288	5
TAP	38	192	4
TAP	38	288	4
STR	39	0	4
SCL	39	0	4	96	288	1
TAP	41	0	7
HLD	41	96	7	288
TAP	42	0	6
TAP	42	193	6
TAP	43	0	5
HLD	43	96	5	288
TAP	44	0	4
TAP	44	192	4
TAP	45	0	3
HLD	45	96	3	288
TAP	46	0	2
TAP	46	192	2
TAP	47	0	1
HLD	47	96	1	288
TAP	48	0	0
BRK	48	192	0
STR	49	0	2
SCR	49	0	2	96	192	5
STR	50	0	6
SI_	50	0	6	96	192	2
TAP	51	0	1
TAP	51	96	1
TAP	51	192	0
TAP	51	192	1
TAP	52	0	6
TAP	52	96	6
TAP	52	192	6
TAP	52	192	7
STR	53	0	5
SCL	53	0	5	96	192	2
STR	54	0	1
SI_	54	0	1	96	192	5
TAP	55	0	7
TAP	55	96	7
TAP	55	192	6
TAP	55	192	7
TAP	56	0	0
TAP	56	96	0
TAP	56	192	0
TAP	56	192	1
TAP	57	0	1
HLD	57	0	6	192
TAP	57	192	5
HLD	58	0	1	192
TAP	58	0	6
TAP	58	192	2
TAP	59	0	2
TAP	59	96	1
TAP	59	192	0
TAP	60	0	7
TAP	60	96	6
TAP	60	192	5
TAP	61	0	2
TAP	61	0	4
TAP	61	192	3
TAP	61	192	5
TAP	62	0	4
TAP	62	0	6
TAP	62	192	5
TAP	62	192	7
STR	63	0	0
SCR	63	0	0	96	480	3
STR	63	0	7
SCL	63	0	7	96	480	4
HLD	65	0	1	192
TAP	65	96	2
TAP	65	192	3
HLD	66	0	6	192
TAP	66	96	5
TAP	66	192	4
TAP	67	0	3
TAP	67	96	3
HLD	67	192	2	96
TAP	68	0	4
TAP	68	96	4
TAP	68	192	5
STR	69	0	6
SI_	69	0	6	96	96	2
STR	70	0	1
SI_	70	0	1	96	96	5
TAP	71	0	0
TAP	71	0	1
TAP	71	192	6
TAP	71	192	7
TAP	72	0	2
TAP	72	0	3
TAP	72	96	3
TAP	72	96	4
TAP	72	192	4
TAP	72	192	5
TAP	73	0	1
TAP	73	96	0
TAP	73	192	0
TAP	73	192	1
TAP	74	0	6
TAP	74	96	7
TAP	74	192	6
TAP	74	192	7
TAP	75	0	5
TAP	75	96	5
TAP	75	192	2
TAP	75	192	3
TAP	76	0	2
TAP	76	96	2
TAP	76	192	4
TAP	76	192	5
HLD	77	0	6	192
HLD	77	192	7	192
HLD	78	0	0	192
TAP	78	192	1
HLD	79	0	2	384
HLD	80	0	3	192
TAP	80	192	4
BRK	80	288	4
TAP	81	0	2
TAP	81	96	3
TAP	81	192	4
TAP	81	192	6
TAP	82	0	5
TAP	82	96	4
TAP	82	192	1
TAP	82	192	3
TAP	83	0	1
TAP	83	96	1
TAP	83	192	0
TAP	83	192	2
TAP	84	0	6
TAP	84	96	6
TAP	84	192	5
TAP	84	192	7
STR	85	0	6
SI_	85	0	6	96	96	2
STR	86	0	1
SI_	86	0	1	96	96	5
TAP	87	0	6
TAP	87	96	6
TAP	87	192	7
TAP	87	288	7
TAP	88	0	0
TAP	88	96	0
BRK	88	192	0
BRK	88	192	1
STR	89	0	6
SI_	89	0	6	96	96	3
STR	90	0	1
SI_	90	0	1	96	96	4
TAP	91	0	4
TAP	91	96	4
TAP	91	192	3
TAP	91	192	5
TAP	91	288	3
TAP	91	288	5
TAP	92	0	2
TAP	92	96	2
TAP	92	192	1
TAP	92	192	3
TAP	92	288	1
TAP	92	288	3
TAP	93	0	0
TAP	93	192	7
TAP	94	0	4
TAP	94	0	6
HLD	94	192	2	528
TAP	94	192	4
HLD	95	0	1	336
BRK	96	192	0
BRK	96	240	0

T_REC_TAP	174
T_REC_BRK	8
T_REC_XTP	0
T_REC_HLD	20
T_REC_XHO	0
T_REC_STR	20
T_REC_BST	0
T_REC_XST	0
T_REC_TTP	0
T_REC_THO	0
T_REC_SLD	20
T_REC_ALL	242
T_NUM_TAP	194
T_NUM_BRK	8
T_NUM_HLD	20
T_NUM_SLD	20
T_NUM_ALL	242
T_JUDGE_TAP	202
T_JUDGE_HLD	112
T_JUDGE_SLD	20
T_JUDGE_ALL	334
TTM_EACHPAIRS	31
TTM_SCR_TAP	97000
TTM_SCR_BRK	20800
TTM_SCR_HLD	20000
TTM_SCR_SLD	30000
TTM_SCR_ALL	167800
TTM_SCR_S	162000
TTM_SCR_SS	167000
TTM_RAT_ACV	10047

