VERSION	0.00.00	1.03.00
FES_MODE	0
BPM_DEF	195.000	195.000	195.000	195.000
MET_DEF	4	4
RESOLUTION	384
CLK_DEF	384
COMPATIBLE_CODE	MA2

BPM	0	0	195.000
MET	0	0	4	4

TAP	9	0	1
TAP	10	0	1
TAP	11	0	0
TAP	12	0	0
TAP	13	0	7
TAP	14	0	7
TAP	15	0	6
TAP	16	0	6
TAP	17	0	5
TAP	18	0	5
TAP	19	0	4
TAP	20	0	4
TAP	21	0	3
TAP	22	0	3
TAP	23	0	2
TAP	24	0	2
TAP	25	0	0
TAP	25	192	1
TAP	26	0	2
HLD	27	0	3	384
TAP	29	0	4
TAP	29	192	5
TAP	30	0	6
HLD	31	0	7	384
TAP	33	0	6
TAP	34	0	5
TAP	35	0	4
STR	37	0	0
SI_	37	0	0	96	240	4
STR	39	0	7
SI_	39	0	7	96	240	3
TAP	41	0	2
TAP	41	0	3
TAP	41	192	2
TAP	41	192	3
TAP	43	0	4
TAP	43	0	5
TAP	43	192	4
TAP	43	192	5
TAP	45	0	6
TAP	45	0	7
TAP	45	192	6
TAP	45	192	7
TAP	47	0	0
TAP	47	0	1
TAP	47	192	0
TAP	47	192	1
TAP	49	0	7
TAP	49	192	6
TAP	50	0	5
HLD	51	0	4	384
TAP	53	0	3
TAP	53	192	2
TAP	54	0	1
HLD	55	0	0	384
TAP	57	0	6
TAP	57	192	7
TAP	58	0	6
TAP	59	0	0
TAP	59	192	7
TAP	60	0	0
TAP	61	0	0
TAP	62	0	1
TAP	63	0	2
TAP	64	0	3
BRK	64	192	4
TAP	65	0	2
TAP	65	0	5
TAP	66	0	2
TAP	66	0	5
STR	67	0	6
SI_	67	0	6	96	240	3
TAP	69	0	3
TAP	69	0	4
TAP	70	0	3
TAP	70	0	4
STR	71	0	2
SI_	71	0	2	96	240	5
TAP	73	0	6
TAP	73	192	6
TAP	74	0	7
TAP	74	192	7
TAP	75	0	0
TAP	75	192	1
TAP	76	0	2
TAP	76	192	3
TAP	77	0	3
TAP	77	0	4
TAP	78	0	2
TAP	78	0	5
TAP	79	0	1
TAP	79	0	6
HLD	80	0	0	192
HLD	80	0	7	192
TAP	81	0	7
BRK	81	192	7
TAP	82	0	0
BRK	82	192	0
TAP	83	0	7
TAP	83	192	6
TAP	84	0	5
TAP	84	192	4
HLD	85	0	3	192
HLD	85	0	4	192
HLD	86	0	3	192
HLD	86	0	4	192
STR	87	0	5
SI_	87	0	5	96	240	2
TAP	89	0	1
TAP	89	96	1
BRK	89	192	1
TAP	90	0	0
TAP	90	96	0
BRK	90	192	0
TAP	91	0	7
STR	91	192	7
SI_	91	192	7	96	288	3
TAP	93	0	2
TAP	93	192	2
TAP	94	0	1
TAP	94	192	1
TAP	95	0	0
TAP	95	192	7
STR	96	0	0
SI_	96	0	0	96	240	3
STR	96	0	7
SI_	96	0	7	96	240	4

T_REC_TAP	96
T_REC_BRK	5
T_REC_XTP	0
T_REC_HLD	10
T_REC_XHO	0
T_REC_STR	8
T_REC_BST	0
T_REC_XST	0
T_REC_TTP	0
T_REC_THO	0
T_REC_SLD	8
T_REC_ALL	127
T_NUM_TAP	104
T_NUM_BRK	5
T_NUM_HLD	10
T_NUM_SLD	8
T_NUM_ALL	127
T_JUDGE_TAP	109
T_JUDGE_HLD	56
T_JUDGE_SLD	8
T_JUDGE_ALL	173
TTM_EACHPAIRS	19
TTM_SCR_TAP	52000
TTM_SCR_BRK	13000
TTM_SCR_HLD	10000
TTM_SCR_SLD	12000
TTM_SCR_ALL	87000
TTM_SCR_S	83950
TTM_SCR_SS	86500
TTM_RAT_ACV	10057

