VERSION	0.00.00	1.03.00
FES_MODE	0
BPM_DEF	162.000	162.000	162.000	162.000
MET_DEF	4	4
RESOLUTION	384
CLK_DEF	384
COMPATIBLE_CODE	MA2

BPM	0	0	162.000
MET	0	0	4	4

STR	1	0	1
SI_	1	0	1	96	96	4
STR	1	48	6
SI_	1	48	6	96	96	3
TAP	2	0	7
TAP	2	48	6
TAP	2	96	5
HLD	2	192	3	72
HLD	2	264	2	72
TAP	2	336	1
TAP	3	0	0
TAP	3	48	1
TAP	3	96	2
HLD	3	192	4	72
HLD	3	264	5	72
TAP	3	336	6
TAP	4	0	7
TAP	4	48	6
TAP	4	96	5
HLD	4	192	3	72
HLD	4	264	2	72
TAP	4	336	1
TAP	5	0	0
TAP	5	48	1
TAP	5	96	2
HLD	5	192	4	72
HLD	5	264	5	72
TAP	5	336	6
TAP	6	0	7
TAP	6	48	0
TAP	6	96	1
HLD	6	192	3	72
HLD	6	264	4	72
TAP	6	336	5
TAP	7	0	0
TAP	7	48	7
TAP	7	96	6
HLD	7	192	4	72
HLD	7	264	3	72
TAP	7	336	2
TAP	8	0	3
TAP	8	48	4
TAP	8	96	5
HLD	8	192	7	72
HLD	8	264	0	72
TAP	8	336	1
TAP	9	0	4
TAP	9	48	3
TAP	9	96	2
TAP	9	192	7
TAP	9	240	1
TAP	9	288	5
BRK	9	336	3
STR	10	96	0
SI_	10	96	0	96	96	3
TAP	10	288	1
STR	10	336	1
SCL	10	336	1	96	96	6
STR	11	192	4
SI_	11	192	4	96	48	0
BRK	11	288	4
HLD	12	0	7	72
TAP	12	72	6
TAP	12	144	5
HLD	12	192	0	72
TAP	12	264	1
TAP	12	336	2
STR	13	0	7
SI_	13	0	7	96	48	3
STR	13	192	1
SI_	13	192	1	96	48	5
HLD	14	0	6	72
TAP	14	72	5
TAP	14	144	4
HLD	14	192	1	72
TAP	14	264	2
TAP	14	336	3
STR	15	0	0
SI_	15	0	0	96	48	4
STR	15	192	6
SI_	15	192	6	96	48	2
HLD	16	0	0	72
TAP	16	72	1
TAP	16	144	2
HLD	16	192	7	72
TAP	16	264	6
TAP	16	336	5
STR	17	0	5
SI_	17	0	5	96	48	0
STR	17	96	3
SI_	17	96	3	96	48	7
STR	17	192	4
SI_	17	192	4	96	48	0
HLD	18	0	1	72
TAP	18	72	2
TAP	18	144	3
HLD	18	192	6	72
TAP	18	264	5
TAP	18	336	4
STR	19	0	4
SI_	19	0	4	96	48	1
STR	19	96	7
SI_	19	96	7	96	48	2
STR	19	192	0
SI_	19	192	0	96	48	3
TAP	20	48	7
TAP	20	96	6
HLD	20	144	5	96
TAP	20	240	1
TAP	20	288	2
HLD	20	336	3	96
TAP	21	48	6
TAP	21	96	5
HLD	21	144	4	96
TAP	21	240	0
TAP	21	288	1
HLD	21	336	2	96
TAP	22	48	7
TAP	22	96	6
HLD	22	144	5	96
TAP	22	240	1
TAP	22	288	2
HLD	22	336	3	96
TAP	23	48	0
STR	23	96	7
SI_	23	96	7	96	48	2
STR	23	192	1
SI_	23	192	1	96	48	4
TAP	24	48	5
TAP	24	96	6
HLD	24	144	7	96
TAP	24	240	3
TAP	24	288	2
HLD	24	336	1	96
TAP	25	48	4
TAP	25	96	5
HLD	25	144	6	96
TAP	25	240	2
TAP	25	288	1
HLD	25	336	0	96
TAP	26	48	5
TAP	26	96	6
HLD	26	144	7	96
TAP	26	240	3
TAP	26	288	2
HLD	26	336	1	96
TAP	27	48	7
STR	27	96	0
SI_	27	96	0	96	48	4
STR	27	192	7
SI_	27	192	7	96	48	3
TAP	28	48	1
TAP	28	96	3
HLD	28	144	5	96
TAP	28	240	6
TAP	28	288	4
HLD	28	336	2	96
TAP	29	48	0
TAP	29	96	2
HLD	29	144	4	96
TAP	29	240	7
TAP	29	288	5
HLD	29	336	3	96
TAP	30	48	1
TAP	30	96	3
HLD	30	144	5	96
TAP	30	240	6
TAP	30	288	4
HLD	30	336	2	96
TAP	31	48	5
STR	31	96	6
SCL	31	96	6	96	48	3
STR	31	192	0
SCL	31	192	0	96	48	5
TAP	32	48	6
TAP	32	96	4
HLD	32	144	3	96
TAP	32	240	7
TAP	32	288	0
HLD	32	336	2	96
TAP	33	48	0
TAP	33	96	6
HLD	33	144	5	96
TAP	33	240	1
TAP	33	288	2
HLD	33	336	4	144
STR	34	96	6
SCR	34	96	6	96	96	1
STR	34	192	1
SCR	34	192	1	96	96	4
BRK	34	288	4
TAP	35	240	7
TAP	35	288	6
TAP	35	336	5
STR	36	0	4
SI_	36	0	4	96	48	0
HLD	36	192	7	144
HLD	36	336	0	144
HLD	37	96	1	96
HLD	37	192	2	96
TAP	37	288	3
STR	38	0	6
SCL	38	0	6	96	96	3
STR	38	192	2
SCL	38	192	2	96	96	7
STR	39	0	6
SCR	39	0	6	96	96	1
TAP	39	240	0
TAP	39	288	1
TAP	39	336	2
STR	40	0	3
SI_	40	0	3	96	48	7
HLD	40	192	0	144
HLD	40	336	7	144
HLD	41	96	6	96
HLD	41	192	5	96
TAP	41	288	4
HLD	42	0	0	96
HLD	42	96	1	96
HLD	42	192	2	96
TAP	42	288	7
HLD	42	336	6	96
TAP	43	48	5
HLD	43	96	4	336
STR	44	48	7
SI_	44	48	7	96	48	3
BRK	44	96	7
TAP	44	192	0
TAP	44	240	6
TAP	44	288	2
BRK	44	336	4
HLD	45	96	6	96
TAP	45	96	7
HLD	45	192	4	96
TAP	45	288	2
STR	45	336	0
SI_	45	336	0	96	48	4
BRK	46	48	7
TAP	46	240	1
TAP	46	288	0
TAP	46	336	7
STR	47	0	6
SCL	47	0	6	96	48	3
STR	47	192	1
SCR	47	192	1	96	48	4
STR	48	0	7
SI_	48	0	7	96	48	3
TAP	48	192	7
TAP	48	240	1
TAP	48	288	5
BRK	48	336	3
TAP	49	96	0
HLD	49	96	1	96
HLD	49	192	3	96
TAP	49	288	5
STR	49	336	7
SI_	49	336	7	96	48	3
BRK	50	48	0
TAP	50	240	6
TAP	50	288	7
TAP	50	336	0
STR	51	0	1
SCR	51	0	1	96	48	4
STR	51	192	6
SCL	51	192	6	96	48	3
HLD	52	0	1	288
BRK	52	288	6
STR	53	0	1
SI_	53	0	1	96	240	5
STR	53	192	7
SI_	53	192	7	96	240	3
STR	54	0	4
SI_	54	0	4	96	240	0
STR	54	192	6
SI_	54	192	6	96	240	3
STR	55	0	7
SCR	55	0	7	96	240	2
STR	55	192	7
SCL	55	192	7	96	240	4
STR	56	0	3
SCL	56	0	3	96	240	0
STR	56	192	7
SI_	56	192	7	96	240	3
STR	57	0	0
SI_	57	0	0	96	192	4
STR	58	0	0
SCR	58	0	0	96	96	3
STR	58	192	7
SI_	58	192	7	96	96	3
STR	59	0	1
SI_	59	0	1	96	192	5
BRK	59	336	6
BRK	60	48	3
BRK	60	48	7
BRK	60	96	1
BRK	60	96	5
STR	60	240	5
SI_	60	240	5	96	48	1
BRK	60	288	5
HLD	61	0	7	72
TAP	61	72	6
TAP	61	144	7
HLD	61	192	0	72
TAP	61	264	1
TAP	61	336	0
STR	62	0	7
SI_	62	0	7	96	48	3
TAP	62	96	0
STR	62	192	1
SCR	62	192	1	96	48	4
HLD	63	0	0	72
TAP	63	72	1
TAP	63	144	0
HLD	63	192	7	72
TAP	63	264	6
TAP	63	336	7
STR	64	0	0
SI_	64	0	0	96	48	4
TAP	64	96	7
STR	64	192	6
SCL	64	192	6	96	48	3
HLD	65	0	2	72
TAP	65	72	3
TAP	65	144	4
HLD	65	192	5	72
TAP	65	264	4
TAP	65	336	7
STR	66	0	0
SI_	66	0	0	96	48	4
STR	66	96	7
SI_	66	96	7	96	48	3
STR	66	192	0
SCL	66	192	0	96	48	5
HLD	67	0	4	72
TAP	67	72	5
TAP	67	144	4
HLD	67	192	2	72
TAP	67	264	3
TAP	67	336	0
STR	68	0	7
SI_	68	0	7	96	48	3
STR	68	96	0
SI_	68	96	0	96	48	4
STR	68	192	7
SCR	68	192	7	96	48	2
STR	68	288	3
SI_	68	288	3	96	384	0

T_REC_TAP	142
T_REC_BRK	15
T_REC_XTP	0
T_REC_HLD	70
T_REC_XHO	0
T_REC_STR	60
T_REC_BST	0
T_REC_XST	0
T_REC_TTP	0
T_REC_THO	0
T_REC_SLD	60
T_REC_ALL	347
T_NUM_TAP	202
T_NUM_BRK	15
T_NUM_HLD	70
T_NUM_SLD	60
T_NUM_ALL	347
T_JUDGE_TAP	217
T_JUDGE_HLD	154
T_JUDGE_SLD	60
T_JUDGE_ALL	431
TTM_EACHPAIRS	4
TTM_SCR_TAP	101000
TTM_SCR_BRK	39000
TTM_SCR_HLD	70000
TTM_SCR_SLD	90000
TTM_SCR_ALL	300000
TTM_SCR_S	289550
TTM_SCR_SS	298500
TTM_RAT_ACV	10050

