VERSION	0.00.00	1.03.00
FES_MODE	0
BPM_DEF	162.000	162.000	162.000	162.000
MET_DEF	4	4
RESOLUTION	384
CLK_DEF	384
COMPATIBLE_CODE	MA2

BPM	0	0	162.000
MET	0	0	4	4

HLD	2	0	7	192
HLD	3	0	1	192
HLD	4	0	2	192
HLD	5	0	6	192
HLD	6	0	7	192
HLD	7	0	1	192
TAP	8	0	1
TAP	8	0	4
TAP	8	96	3
TAP	8	192	3
TAP	8	192	6
TAP	8	288	4
TAP	9	0	1
TAP	9	0	4
HLD	9	96	2	192
BRK	9	192	6
BRK	9	288	7
STR	10	192	6
SCR	10	192	6	96	192	1
BRK	11	288	1
BRK	11	288	6
HLD	12	0	2	672
TAP	12	0	7
TAP	12	96	7
TAP	12	192	6
TAP	12	288	6
TAP	13	0	7
TAP	13	96	6
TAP	13	192	7
TAP	13	288	6
HLD	14	0	3	672
TAP	14	0	7
TAP	14	96	7
TAP	14	192	6
TAP	14	288	6
TAP	15	0	7
TAP	15	96	6
TAP	15	192	7
TAP	15	288	6
TAP	16	0	4
TAP	16	96	6
TAP	16	192	4
HLD	16	288	6	384
TAP	17	0	3
TAP	17	96	1
TAP	17	192	3
TAP	17	288	1
STR	18	0	4
SCR	18	0	4	96	96	7
STR	18	192	3
SCL	18	192	3	96	96	0
HLD	19	0	7	96
STR	19	96	1
SI_	19	96	1	96	96	6
TAP	20	0	1
TAP	20	0	5
TAP	20	96	3
TAP	20	192	2
TAP	20	192	6
TAP	20	288	4
TAP	21	0	1
TAP	21	0	5
TAP	21	96	2
TAP	21	96	6
TAP	21	192	2
TAP	21	192	5
STR	21	288	0
SCR	21	288	0	96	192	3
STR	21	288	7
SCL	21	288	7	96	192	4
TAP	23	0	1
TAP	23	0	6
HLD	24	0	2	288
TAP	24	192	1
STR	24	288	7
SCL	24	288	7	96	96	4
TAP	25	192	3
TAP	25	192	6
TAP	25	288	1
STR	25	288	4
SCL	25	288	4	96	96	1
TAP	27	0	2
TAP	27	0	3
TAP	27	96	4
TAP	27	96	5
TAP	27	192	2
TAP	27	192	3
TAP	27	288	4
TAP	27	288	5
STR	28	0	1
SI_	28	0	1	96	96	6
HLD	29	0	2	288
TAP	29	0	4
TAP	29	96	5
TAP	29	192	4
TAP	29	288	5
HLD	30	0	5	240
STR	30	240	7
SCR	30	240	7	96	144	2
STR	30	288	5
SCL	30	288	5	96	96	2
HLD	32	0	6	288
HLD	32	192	1	96
TAP	33	0	0
TAP	33	0	4
TAP	33	96	2
TAP	33	96	6
TAP	33	192	3
TAP	33	192	7
TAP	33	288	1
TAP	33	288	5
HLD	34	0	1	192
TAP	34	0	6
TAP	34	96	0
TAP	34	192	6
STR	34	288	0
SI_	34	288	0	96	192	3
STR	34	288	7
SI_	34	288	7	96	192	4
TAP	35	240	2
TAP	35	240	5
TAP	35	288	3
TAP	35	336	4
BRK	36	96	1
BRK	36	96	6
TAP	36	192	3
TAP	36	192	4
TAP	37	0	0
HLD	37	0	2	96
TAP	37	96	5
HLD	37	192	5	96
TAP	37	192	7
TAP	37	288	2
STR	38	0	2
SI_	38	0	2	96	96	5
TAP	39	0	2
TAP	39	0	5
TAP	39	96	3
TAP	39	96	5
TAP	39	192	2
TAP	39	192	4
TAP	39	288	2
TAP	39	288	5
BRK	40	96	1
BRK	40	96	6
TAP	40	192	3
TAP	40	192	4
HLD	40	288	5	96
HLD	41	0	4	96
HLD	41	96	3	96
TAP	41	192	2
STR	42	0	2
SI_	42	0	2	96	96	5
STR	43	0	6
SI_	43	0	6	96	192	1
HLD	43	96	5	192
BRK	44	0	7
HLD	44	192	2	288
TAP	44	192	6
TAP	44	288	0
TAP	45	0	6
TAP	45	96	6
HLD	45	192	3	96
TAP	45	192	6
TAP	45	288	4
STR	46	0	0
SI_	46	0	0	96	96	3
TAP	46	0	4
BRK	46	96	7
HLD	47	0	1	96
TAP	47	0	6
TAP	47	96	3
TAP	47	192	1
HLD	47	192	6	96
TAP	47	288	4
TAP	48	0	6
TAP	48	0	7
HLD	48	192	2	288
TAP	48	192	6
TAP	48	288	0
TAP	49	0	6
TAP	49	96	6
HLD	49	192	3	96
TAP	49	192	6
TAP	49	288	4
STR	50	0	0
SI_	50	0	0	96	96	3
TAP	50	0	4
BRK	50	96	7
HLD	51	0	1	96
TAP	51	0	6
TAP	51	96	3
TAP	51	192	1
HLD	51	192	6	96
TAP	51	288	4
HLD	52	0	1	192
HLD	52	0	6	192
TAP	53	0	6
TAP	53	192	5
TAP	54	0	1
TAP	54	192	2
STR	55	0	6
SCL	55	0	6	96	96	3
STR	55	192	0
SCR	55	192	0	96	96	3
STR	56	192	0
SI_	56	192	0	96	192	3
HLD	58	0	4	192
HLD	58	192	3	192
STR	59	0	7
SI_	59	0	7	96	96	4
TAP	59	336	0
TAP	59	336	7
TAP	60	48	1
TAP	60	48	6
BRK	60	96	3
BRK	60	96	4
HLD	60	288	7	96
STR	61	0	6
SI_	61	0	6	96	96	1
STR	62	0	4
SI_	62	0	4	96	96	7
HLD	63	0	2	288
TAP	63	0	7
TAP	63	96	7
TAP	63	192	6
TAP	63	288	6
HLD	64	0	3	288
TAP	64	0	7
TAP	64	96	6
TAP	64	192	7
TAP	64	288	6
TAP	65	0	4
TAP	65	96	6
TAP	65	192	4
HLD	65	288	6	384
TAP	66	0	3
TAP	66	96	1
TAP	66	192	3
TAP	66	288	1
HLD	67	0	6	96
HLD	67	96	1	96
HLD	67	192	7	96
HLD	67	288	0	192
BRK	68	96	7
STR	68	288	7
SI_	68	288	7	96	384	4

T_REC_TAP	140
T_REC_BRK	14
T_REC_XTP	0
T_REC_HLD	43
T_REC_XHO	0
T_REC_STR	25
T_REC_BST	0
T_REC_XST	0
T_REC_TTP	0
T_REC_THO	0
T_REC_SLD	25
T_REC_ALL	247
T_NUM_TAP	165
T_NUM_BRK	14
T_NUM_HLD	43
T_NUM_SLD	25
T_NUM_ALL	247
T_JUDGE_TAP	179
T_JUDGE_HLD	181
T_JUDGE_SLD	25
T_JUDGE_ALL	385
TTM_EACHPAIRS	54
TTM_SCR_TAP	82500
TTM_SCR_BRK	36400
TTM_SCR_HLD	43000
TTM_SCR_SLD	37500
TTM_SCR_ALL	199400
TTM_SCR_S	192100
TTM_SCR_SS	198000
TTM_RAT_ACV	10070

