VERSION	0.00.00	1.03.00
FES_MODE	0
BPM_DEF	162.000	162.000	162.000	162.000
MET_DEF	4	4
RESOLUTION	384
CLK_DEF	384
COMPATIBLE_CODE	MA2

BPM	0	0	162.000
MET	0	0	4	4

HLD	2	0	7	96
TAP	2	192	7
TAP	2	288	7
HLD	3	0	1	96
TAP	3	192	1
TAP	3	288	1
HLD	4	0	2	96
TAP	4	192	2
TAP	4	288	2
HLD	5	0	6	96
TAP	5	192	6
TAP	5	288	6
HLD	6	0	7	96
TAP	6	192	7
TAP	6	288	7
HLD	7	0	1	96
TAP	7	192	1
TAP	7	288	1
TAP	8	0	1
TAP	8	0	4
TAP	8	96	3
TAP	8	192	3
TAP	8	192	6
TAP	8	288	4
TAP	9	0	1
TAP	9	0	4
BRK	9	192	6
BRK	9	288	6
TAP	10	96	6
TAP	10	192	7
HLD	10	288	0	288
BRK	11	288	1
BRK	11	288	6
TAP	12	0	1
TAP	12	0	7
TAP	12	96	7
TAP	12	192	6
TAP	12	288	6
TAP	13	0	7
TAP	13	96	6
TAP	13	192	7
TAP	13	288	6
TAP	14	0	1
TAP	14	0	7
TAP	14	96	7
TAP	14	192	6
TAP	14	288	6
TAP	15	0	7
TAP	15	96	6
TAP	15	192	7
TAP	15	288	6
TAP	16	0	4
TAP	16	96	6
TAP	16	192	4
TAP	16	288	6
TAP	17	0	3
TAP	17	96	1
TAP	17	192	3
TAP	17	288	1
STR	18	0	4
SCR	18	0	4	96	192	7
STR	19	0	1
SI_	19	0	1	96	144	6
TAP	20	0	2
TAP	20	0	4
TAP	20	96	3
TAP	20	192	3
TAP	20	192	5
TAP	20	288	4
TAP	21	0	2
TAP	21	0	4
STR	21	192	0
SCR	21	192	0	96	192	3
STR	21	192	7
SCL	21	192	7	96	192	4
HLD	23	0	1	192
HLD	23	0	6	192
HLD	24	0	2	192
TAP	24	192	1
TAP	25	0	7
TAP	25	96	5
TAP	25	192	3
TAP	25	192	6
STR	26	0	4
SCL	26	0	4	96	192	1
TAP	27	0	2
TAP	27	0	3
TAP	27	96	4
TAP	27	96	5
TAP	27	192	2
TAP	27	192	3
TAP	27	288	4
TAP	27	288	5
STR	28	0	1
SI_	28	0	1	96	144	6
TAP	29	0	4
TAP	29	96	5
TAP	29	192	4
TAP	29	288	5
HLD	30	0	5	192
STR	31	0	7
SCR	31	0	7	96	192	2
HLD	32	0	6	288
HLD	32	192	1	96
TAP	33	0	4
TAP	33	96	6
TAP	33	192	3
TAP	33	288	1
TAP	34	0	6
TAP	34	96	0
TAP	34	192	6
STR	34	288	0
SI_	34	288	0	96	144	3
STR	34	288	7
SI_	34	288	7	96	144	4
TAP	36	0	2
TAP	36	0	5
BRK	36	96	1
BRK	36	96	6
TAP	36	192	3
TAP	36	192	4
TAP	37	0	3
TAP	37	96	2
TAP	37	96	5
TAP	37	192	4
TAP	37	288	2
TAP	37	288	5
STR	38	0	2
SI_	38	0	2	96	144	5
TAP	39	0	2
TAP	39	0	5
TAP	39	96	3
TAP	39	192	4
TAP	39	288	2
TAP	39	288	5
BRK	40	96	1
BRK	40	96	6
TAP	40	192	3
TAP	40	192	4
TAP	40	288	5
TAP	41	0	4
TAP	41	96	3
TAP	41	192	2
STR	42	0	2
SI_	42	0	2	96	144	5
STR	43	0	6
SI_	43	0	6	96	144	1
BRK	44	0	7
TAP	44	192	6
TAP	44	288	0
TAP	45	0	6
TAP	45	96	6
TAP	45	192	6
TAP	45	288	1
TAP	46	0	0
BRK	46	96	7
TAP	47	0	6
TAP	47	96	5
TAP	47	192	1
TAP	47	288	2
TAP	48	0	6
TAP	48	0	7
TAP	48	192	6
TAP	48	288	0
TAP	49	0	6
TAP	49	96	6
TAP	49	192	6
TAP	49	288	1
TAP	50	0	0
BRK	50	96	7
TAP	51	0	6
TAP	51	96	5
TAP	51	192	1
TAP	51	288	2
HLD	52	0	1	192
HLD	52	0	6	192
TAP	53	0	6
TAP	53	192	5
TAP	54	0	1
TAP	54	192	2
STR	55	0	6
SCL	55	0	6	96	192	3
TAP	56	0	0
STR	56	192	0
SI_	56	192	0	96	144	3
HLD	58	0	4	192
TAP	58	192	3
STR	59	0	7
SI_	59	0	7	96	144	4
TAP	59	336	0
TAP	59	336	7
TAP	60	48	1
TAP	60	48	6
BRK	60	96	1
BRK	60	96	6
TAP	61	0	3
TAP	61	96	3
TAP	61	192	2
TAP	61	288	2
TAP	62	0	4
TAP	62	96	4
TAP	62	192	5
TAP	62	288	5
TAP	63	0	1
TAP	63	0	7
TAP	63	96	7
TAP	63	192	6
TAP	63	288	6
TAP	64	0	1
TAP	64	0	7
TAP	64	96	6
TAP	64	192	7
TAP	64	288	6
TAP	65	0	4
TAP	65	96	6
TAP	65	192	4
TAP	65	288	6
TAP	66	0	3
TAP	66	96	1
TAP	66	192	3
TAP	66	288	1
TAP	67	0	6
TAP	67	96	1
TAP	67	192	7
TAP	67	288	0
TAP	68	0	7
TAP	68	96	0
TAP	68	192	7
STR	68	288	7
SI_	68	288	7	96	384	4

T_REC_TAP	169
T_REC_BRK	13
T_REC_XTP	0
T_REC_HLD	16
T_REC_XHO	0
T_REC_STR	16
T_REC_BST	0
T_REC_XST	0
T_REC_TTP	0
T_REC_THO	0
T_REC_SLD	16
T_REC_ALL	230
T_NUM_TAP	185
T_NUM_BRK	13
T_NUM_HLD	16
T_NUM_SLD	16
T_NUM_ALL	230
T_JUDGE_TAP	198
T_JUDGE_HLD	54
T_JUDGE_SLD	16
T_JUDGE_ALL	268
TTM_EACHPAIRS	33
TTM_SCR_TAP	92500
TTM_SCR_BRK	33800
TTM_SCR_HLD	16000
TTM_SCR_SLD	24000
TTM_SCR_ALL	166300
TTM_SCR_S	160050
TTM_SCR_SS	165000
TTM_RAT_ACV	10078

