VERSION	0.00.00	1.03.00
FES_MODE	0
BPM_DEF	162.000	162.000	162.000	162.000
MET_DEF	4	4
RESOLUTION	384
CLK_DEF	384
COMPATIBLE_CODE	MA2

BPM	0	0	162.000
MET	0	0	4	4

TAP	2	0	2
TAP	3	0	0
TAP	4	0	1
TAP	5	0	6
TAP	6	0	7
TAP	7	0	1
TAP	8	0	7
STR	10	96	7
SI_	10	96	7	96	312	4
TAP	11	288	0
TAP	11	288	7
TAP	12	192	7
TAP	13	0	7
TAP	13	96	7
TAP	13	192	7
TAP	14	0	7
TAP	14	96	7
TAP	14	192	7
TAP	15	0	7
TAP	15	96	7
TAP	15	192	7
TAP	16	0	6
TAP	16	192	5
TAP	17	0	1
TAP	17	192	2
HLD	18	0	7	384
HLD	18	192	0	192
TAP	20	0	5
TAP	20	192	2
TAP	21	0	7
TAP	21	192	0
TAP	22	192	1
TAP	22	192	6
TAP	23	0	6
TAP	24	0	1
TAP	24	192	6
TAP	25	0	0
TAP	25	0	7
TAP	26	0	2
STR	26	192	1
SI_	26	192	1	96	216	6
STR	28	0	1
SI_	28	0	1	96	216	6
TAP	29	192	3
TAP	29	192	4
TAP	30	0	1
TAP	30	0	6
TAP	31	0	1
TAP	31	0	6
TAP	32	0	7
TAP	32	192	0
TAP	33	0	7
TAP	33	192	0
TAP	34	0	0
TAP	34	0	7
TAP	35	0	0
TAP	35	0	7
BRK	36	96	0
BRK	36	96	7
TAP	37	0	0
TAP	37	192	7
TAP	39	0	2
TAP	39	0	5
TAP	39	192	2
TAP	39	192	5
BRK	40	96	0
BRK	40	96	7
STR	42	0	1
SI_	42	0	1	96	312	6
STR	42	0	2
SI_	42	0	2	96	312	5
TAP	44	192	6
TAP	44	288	7
TAP	45	96	7
TAP	45	192	5
TAP	45	288	5
TAP	46	0	7
BRK	46	96	7
TAP	47	0	5
TAP	47	192	2
TAP	48	192	6
TAP	48	288	7
TAP	49	96	7
TAP	49	192	5
TAP	49	288	5
TAP	50	0	7
BRK	50	96	7
TAP	51	0	5
TAP	51	192	2
STR	52	0	0
SI_	52	0	0	96	216	3
STR	52	0	7
SI_	52	0	7	96	216	4
TAP	53	0	4
TAP	54	0	3
TAP	55	0	5
TAP	56	0	1
STR	57	0	6
SI_	57	0	6	96	312	1
STR	58	192	7
SI_	58	192	7	96	312	4
BRK	61	0	0
TAP	63	0	7
TAP	63	96	7
TAP	63	192	7
TAP	64	0	7
TAP	64	96	7
TAP	64	192	7
TAP	65	0	6
TAP	65	192	4
TAP	66	0	1
TAP	66	192	3
TAP	67	0	1
TAP	67	0	6
TAP	67	192	7
BRK	68	96	7
STR	69	0	7
SI_	69	0	7	96	312	4

T_REC_TAP	88
T_REC_BRK	8
T_REC_XTP	0
T_REC_HLD	2
T_REC_XHO	0
T_REC_STR	10
T_REC_BST	0
T_REC_XST	0
T_REC_TTP	0
T_REC_THO	0
T_REC_SLD	10
T_REC_ALL	118
T_NUM_TAP	98
T_NUM_BRK	8
T_NUM_HLD	2
T_NUM_SLD	10
T_NUM_ALL	118
T_JUDGE_TAP	106
T_JUDGE_HLD	12
T_JUDGE_SLD	10
T_JUDGE_ALL	128
TTM_EACHPAIRS	15
TTM_SCR_TAP	49000
TTM_SCR_BRK	20800
TTM_SCR_HLD	2000
TTM_SCR_SLD	15000
TTM_SCR_ALL	86800
TTM_SCR_S	83450
TTM_SCR_SS	86000
TTM_RAT_ACV	10093

