VERSION	0.00.00	1.03.00
FES_MODE	0
BPM_DEF	150.000	150.000	150.000	150.000
MET_DEF	4	4
RESOLUTION	384
CLK_DEF	384
COMPATIBLE_CODE	MA2

BPM	0	0	150.000
MET	0	0	4	4

HLD	1	0	1	144
HLD	1	144	7	48
HLD	1	192	0	96
HLD	1	288	6	96
TAP	2	0	2
TAP	2	24	3
TAP	2	48	2
TAP	2	96	4
TAP	2	144	3
TAP	2	192	5
TAP	2	216	4
TAP	2	240	5
TAP	2	288	3
TAP	2	336	4
HLD	3	0	1	144
TAP	3	144	7
TAP	3	168	0
HLD	3	192	6	72
HLD	3	264	2	72
TAP	3	336	4
STR	4	0	0
SCL	4	0	0	96	96	5
STR	4	96	5
SCL	4	96	5	96	96	2
TAP	5	0	0
TAP	5	48	1
TAP	5	96	2
TAP	5	144	3
TAP	5	192	4
TAP	5	240	5
TAP	5	288	6
TAP	5	336	7
TAP	6	48	0
TAP	6	48	4
TAP	6	96	2
TAP	6	144	6
TAP	6	192	3
TAP	6	192	7
TAP	6	240	5
TAP	6	288	1
TAP	6	336	0
TAP	6	336	7
TAP	7	0	1
TAP	7	0	6
STR	7	144	2
SI_	7	144	2	96	48	7
TAP	7	168	3
TAP	7	192	2
STR	7	336	5
SI_	7	336	5	96	48	0
TAP	7	360	4
TAP	8	0	5
TAP	8	144	0
TAP	8	168	7
TAP	8	192	1
TAP	8	264	6
TAP	8	336	1
TAP	9	0	0
TAP	9	0	7
TAP	9	48	6
TAP	9	96	5
TAP	9	144	4
TAP	9	192	3
TAP	9	240	2
TAP	9	288	1
TAP	9	336	0
TAP	10	48	3
TAP	10	48	7
TAP	10	96	5
TAP	10	144	1
TAP	10	192	0
TAP	10	192	4
TAP	10	240	2
TAP	10	288	6
TAP	10	336	3
TAP	10	336	4
TAP	11	0	1
TAP	11	0	6
HLD	11	72	0	120
TAP	11	240	6
TAP	11	264	7
TAP	11	288	6
TAP	11	336	1
TAP	11	360	0
TAP	12	0	1
TAP	12	72	5
TAP	12	96	4
TAP	12	144	2
TAP	12	168	3
TAP	12	192	2
BRK	12	288	5
HLD	13	0	1	192
TAP	13	48	0
TAP	13	96	0
TAP	13	144	0
HLD	13	192	7	144
TAP	13	240	6
TAP	13	288	6
TAP	13	336	6
HLD	14	48	2	96
TAP	14	144	1
TAP	14	192	4
TAP	14	240	5
TAP	14	288	2
TAP	14	336	3
STR	15	0	1
SCL	15	0	1	96	96	6
STR	15	0	6
SI_	15	0	6	96	96	2
TAP	15	288	4
TAP	15	312	3
TAP	15	336	5
TAP	15	360	2
TAP	16	0	6
BRK	16	96	0
TAP	17	0	0
TAP	17	48	4
TAP	17	96	6
TAP	17	144	4
TAP	17	192	2
TAP	17	240	7
TAP	17	288	3
HLD	17	336	5	96
TAP	18	48	1
TAP	18	96	0
TAP	18	144	2
TAP	18	192	7
TAP	18	240	3
TAP	18	288	6
HLD	18	336	4	96
TAP	19	48	5
TAP	19	96	3
TAP	19	96	6
TAP	19	144	2
TAP	19	168	3
TAP	19	192	2
TAP	19	240	5
TAP	19	288	1
TAP	19	336	7
BRK	20	0	3
HLD	20	96	6	96
HLD	20	192	7	96
HLD	20	288	0	96
STR	21	0	1
SCR	21	0	1	96	192	4
STR	22	0	0
SCL	22	0	0	96	192	5
STR	23	0	6
SI_	23	0	6	96	96	3
STR	23	192	7
SI_	23	192	7	96	96	2
STR	24	0	3
SCR	24	0	3	96	96	6
TAP	24	192	1
TAP	24	288	0
HLD	25	0	7	192
HLD	25	192	1	144
TAP	25	336	3
HLD	26	0	3	144
TAP	26	144	5
TAP	26	192	5
STR	26	288	5
SCR	26	288	5	96	192	0
BRK	28	0	0
BRK	28	0	7
STR	28	96	3
SI_	28	96	3	96	48	7
STR	28	192	5
SI_	28	192	5	96	48	0
TAP	29	48	0
TAP	29	48	4
TAP	29	96	0
TAP	29	96	4
TAP	29	144	0
TAP	29	144	4
TAP	29	192	1
TAP	29	192	7
TAP	29	240	2
TAP	29	240	6
TAP	29	288	3
TAP	29	288	5
TAP	29	336	4
TAP	30	48	3
TAP	30	48	7
TAP	30	96	2
TAP	30	96	6
TAP	30	144	1
TAP	30	144	5
TAP	30	192	0
TAP	30	192	4
TAP	30	240	1
TAP	30	240	5
TAP	30	288	2
TAP	30	288	6
TAP	30	336	3
TAP	30	336	7
STR	31	0	0
SCL	31	0	0	96	144	5
STR	31	0	4
SCL	31	0	4	96	144	1
TAP	32	0	1
TAP	32	48	6
TAP	32	72	7
TAP	32	96	6
TAP	32	144	2
TAP	32	168	3
TAP	32	192	2
TAP	32	240	5
TAP	32	264	4
TAP	32	288	6
TAP	32	312	3
TAP	32	336	7
TAP	32	360	2
TAP	33	48	0
TAP	33	48	1
TAP	33	96	2
TAP	33	96	3
TAP	33	144	4
TAP	33	144	5
TAP	33	192	6
TAP	33	192	7
TAP	33	240	4
TAP	33	240	5
TAP	33	288	2
TAP	33	288	3
TAP	33	336	0
TAP	33	336	1
HLD	34	48	3	336
TAP	34	96	6
TAP	34	144	7
TAP	34	192	0
TAP	34	240	1
TAP	34	288	0
TAP	34	336	7
BRK	35	0	6
TAP	35	48	0
TAP	35	96	5
TAP	35	144	3
TAP	35	192	6
TAP	35	240	1
TAP	35	288	4
TAP	35	336	2
TAP	36	0	7
TAP	36	48	3
TAP	36	96	4
TAP	36	144	1
TAP	36	192	6
TAP	36	240	2
TAP	36	288	5
TAP	36	336	1
BRK	37	0	5
TAP	37	48	3
TAP	37	48	7
TAP	37	96	3
TAP	37	96	7
TAP	37	144	3
TAP	37	144	7
TAP	37	192	0
TAP	37	192	6
TAP	37	240	1
TAP	37	240	5
TAP	37	288	2
TAP	37	288	4
TAP	37	336	3
TAP	38	0	4
TAP	38	48	3
TAP	38	48	5
TAP	38	96	2
TAP	38	96	6
TAP	38	144	1
TAP	38	144	7
TAP	38	192	0
TAP	38	240	3
TAP	38	240	7
TAP	38	288	2
TAP	38	288	6
TAP	38	336	1
TAP	38	336	5
BRK	39	0	0
BRK	39	0	4
HLD	39	72	7	72
TAP	39	144	3
HLD	39	192	1	72
HLD	39	264	5	72
TAP	39	336	7
HLD	40	0	3	72
HLD	40	72	2	72
TAP	40	144	0
STR	40	192	2
SI_	40	192	2	96	48	6
TAP	41	48	1
TAP	41	48	2
TAP	41	96	1
TAP	41	96	2
TAP	41	144	1
TAP	41	144	2
TAP	41	192	5
TAP	41	192	6
TAP	41	240	5
TAP	41	240	6
TAP	41	288	5
TAP	41	288	6
TAP	41	336	5
TAP	41	336	6
TAP	42	48	5
TAP	42	48	6
TAP	42	96	4
TAP	42	96	7
TAP	42	144	0
TAP	42	144	3
STR	42	192	1
SI_	42	192	1	96	48	6
STR	42	192	2
SI_	42	192	2	96	48	5
TAP	43	0	7
TAP	43	24	6
TAP	43	48	5
TAP	43	72	4
TAP	43	96	3
TAP	43	120	2
TAP	43	144	1
TAP	43	168	0
TAP	43	192	7
TAP	43	216	6
TAP	43	240	5
TAP	43	264	4
TAP	43	288	3
TAP	43	312	2
TAP	43	336	1
TAP	43	360	0
BRK	44	0	7
STR	44	96	1
SCL	44	96	1	96	48	6
STR	44	96	5
SCL	44	96	5	96	48	2
STR	44	288	0
SI_	44	288	0	96	96	4
STR	44	288	7
SI_	44	288	7	96	96	3
TAP	45	192	2
TAP	45	192	5
TAP	45	336	4
TAP	45	360	3
HLD	46	0	4	288
STR	46	96	3
SI_	46	96	3	96	96	0
TAP	47	0	0
TAP	47	0	4
TAP	47	96	1
TAP	47	96	5
TAP	47	192	2
TAP	47	192	6
TAP	47	288	3
TAP	47	288	7
STR	48	0	0
SCL	48	0	0	96	144	5
STR	48	0	4
SCL	48	0	4	96	144	1
TAP	49	0	0
TAP	49	0	4
TAP	49	144	3
TAP	49	144	5
TAP	49	288	1
TAP	49	288	7
TAP	50	48	2
TAP	50	48	6
BRK	50	192	1
BRK	50	192	5
BRK	50	288	3
BRK	50	288	7
TAP	51	0	0
TAP	51	48	2
TAP	51	72	3
TAP	51	96	2
TAP	51	144	5
TAP	51	168	4
TAP	51	192	5
TAP	51	240	2
TAP	51	264	3
TAP	51	288	2
TAP	51	336	5
TAP	51	360	4
TAP	52	0	5
TAP	52	48	1
TAP	52	72	3
TAP	52	96	2
TAP	52	144	6
TAP	52	168	4
TAP	52	192	5
TAP	52	288	1
TAP	52	288	6
HLD	53	0	5	96
HLD	53	96	6	96
HLD	53	192	7	96
STR	53	288	0
SI_	53	288	0	96	48	4
STR	54	0	6
SI_	54	0	6	96	48	2
STR	54	96	5
SI_	54	96	5	96	48	1
STR	54	192	3
SI_	54	192	3	96	48	7
STR	55	0	6
SCR	55	0	6	96	48	1
TAP	55	48	4
TAP	55	96	3
TAP	55	144	4
STR	55	192	2
SCL	55	192	2	96	48	7
TAP	55	240	3
TAP	55	288	4
TAP	55	336	3
STR	56	0	6
SCR	56	0	6	96	48	1
TAP	56	48	4
TAP	56	96	3
TAP	56	144	4
STR	56	192	2
SCL	56	192	2	96	48	7
TAP	56	240	3
TAP	56	288	4
TAP	56	336	3
TAP	57	48	1
TAP	57	48	6
TAP	57	96	0
TAP	57	96	7
HLD	57	192	0	144
TAP	57	240	2
TAP	57	288	3
TAP	57	336	4
TAP	58	48	1
TAP	58	48	6
TAP	58	96	0
TAP	58	96	7
STR	58	192	3
SI_	58	192	3	96	48	0
STR	58	192	4
SI_	58	192	4	96	48	7
TAP	58	240	2
TAP	58	240	5
STR	59	0	1
SCL	59	0	1	96	48	6
TAP	59	48	3
TAP	59	96	4
TAP	59	144	3
STR	59	192	5
SCR	59	192	5	96	48	0
TAP	59	240	4
TAP	59	288	3
TAP	59	336	4
STR	60	0	1
SCL	60	0	1	96	48	6
TAP	60	48	3
TAP	60	96	4
TAP	60	144	3
STR	60	192	5
SCR	60	192	5	96	48	0
TAP	60	240	4
TAP	60	288	3
TAP	60	336	4
TAP	61	48	1
TAP	61	48	6
TAP	61	96	0
TAP	61	96	7
TAP	61	192	1
TAP	61	240	2
TAP	61	240	3
TAP	61	288	4
TAP	61	336	5
TAP	61	336	6
TAP	62	48	1
TAP	62	48	6
TAP	62	96	0
TAP	62	96	7
TAP	62	240	0
TAP	62	264	1
TAP	62	288	2
TAP	62	312	3
TAP	62	336	4
TAP	62	360	5
STR	63	0	6
SCL	63	0	6	96	48	3
TAP	63	48	7
TAP	63	96	0
TAP	63	144	7
STR	63	192	2
SCR	63	192	2	96	48	5
TAP	63	240	0
TAP	63	288	7
TAP	63	336	0
STR	64	0	6
SCL	64	0	6	96	48	3
TAP	64	48	7
TAP	64	96	0
TAP	64	144	7
STR	64	192	2
SCR	64	192	2	96	48	5
TAP	64	240	0
TAP	64	288	7
TAP	64	336	0
TAP	65	48	1
TAP	65	48	6
TAP	65	96	0
TAP	65	96	7
HLD	65	192	0	144
TAP	65	240	5
TAP	65	288	4
TAP	65	336	3
TAP	66	48	1
TAP	66	48	6
TAP	66	96	0
TAP	66	96	7
TAP	66	240	7
TAP	66	264	6
TAP	66	288	5
TAP	66	312	4
TAP	66	336	3
TAP	66	360	2
STR	67	0	1
SCR	67	0	1	96	48	4
TAP	67	48	0
TAP	67	96	7
TAP	67	144	0
STR	67	192	5
SCL	67	192	5	96	48	2
TAP	67	240	7
TAP	67	288	0
TAP	67	336	7
STR	68	0	1
SCR	68	0	1	96	48	4
TAP	68	48	0
TAP	68	96	7
TAP	68	144	0
STR	68	192	5
SCL	68	192	5	96	48	2
TAP	68	240	7
TAP	68	288	0
TAP	68	336	7
TAP	69	48	1
TAP	69	48	6
TAP	69	96	0
TAP	69	96	7
TAP	69	192	6
TAP	69	240	7
TAP	69	288	0
TAP	69	336	1
TAP	70	48	0
TAP	70	72	7
TAP	70	96	0
TAP	70	120	7
TAP	70	144	1
TAP	70	168	6
TAP	70	192	2
TAP	70	216	5
TAP	70	240	3
TAP	70	264	4
TAP	70	288	2
TAP	70	312	5
TAP	70	336	1
TAP	70	360	6
BRK	71	0	0

T_REC_TAP	419
T_REC_BRK	15
T_REC_XTP	0
T_REC_HLD	31
T_REC_XHO	0
T_REC_STR	48
T_REC_BST	0
T_REC_XST	0
T_REC_TTP	0
T_REC_THO	0
T_REC_SLD	48
T_REC_ALL	561
T_NUM_TAP	467
T_NUM_BRK	15
T_NUM_HLD	31
T_NUM_SLD	48
T_NUM_ALL	561
T_JUDGE_TAP	482
T_JUDGE_HLD	82
T_JUDGE_SLD	48
T_JUDGE_ALL	612
TTM_EACHPAIRS	90
TTM_SCR_TAP	233500
TTM_SCR_BRK	39000
TTM_SCR_HLD	31000
TTM_SCR_SLD	72000
TTM_SCR_ALL	375500
TTM_SCR_S	362800
TTM_SCR_SS	374000
TTM_RAT_ACV	10040

