VERSION	0.00.00	1.03.00
FES_MODE	0
BPM_DEF	150.000	150.000	150.000	150.000
MET_DEF	4	4
RESOLUTION	384
CLK_DEF	384
COMPATIBLE_CODE	MA2

BPM	0	0	150.000
MET	0	0	4	4

HLD	1	0	7	192
HLD	1	192	6	192
HLD	2	0	5	192
HLD	2	192	4	192
HLD	3	0	3	192
TAP	3	192	2
TAP	3	288	1
STR	4	0	2
SCR	4	0	2	96	144	5
TAP	5	0	3
TAP	5	96	4
TAP	5	192	2
TAP	5	288	5
TAP	6	0	3
TAP	6	96	4
TAP	6	192	2
TAP	6	288	5
HLD	7	0	2	192
TAP	7	96	3
HLD	7	192	5	192
TAP	7	288	4
HLD	8	0	1	192
TAP	8	96	2
HLD	8	192	6	96
TAP	8	288	5
TAP	9	0	4
TAP	9	96	3
TAP	9	192	6
TAP	9	288	1
TAP	10	0	4
TAP	10	96	3
TAP	10	192	6
TAP	10	288	1
HLD	11	0	6	192
TAP	11	96	7
HLD	11	192	1	192
TAP	11	288	0
HLD	12	0	5	192
TAP	12	96	4
HLD	12	192	2	96
TAP	12	288	3
TAP	13	0	1
TAP	13	96	4
TAP	13	192	3
TAP	13	288	6
TAP	14	0	2
TAP	14	96	5
TAP	14	192	1
TAP	14	288	4
HLD	15	0	1	192
TAP	15	96	0
HLD	15	192	5	192
TAP	15	288	4
HLD	16	0	2	192
TAP	16	96	3
HLD	16	192	6	96
TAP	16	288	7
TAP	17	0	4
TAP	17	96	0
TAP	17	192	6
TAP	17	288	2
TAP	18	0	7
TAP	18	96	3
TAP	18	192	5
TAP	18	288	0
HLD	19	0	0	96
HLD	19	0	7	96
TAP	19	192	6
TAP	19	240	2
TAP	19	288	5
TAP	19	336	3
TAP	20	0	4
HLD	20	96	1	96
HLD	20	192	2	96
HLD	20	288	3	96
HLD	21	0	4	384
TAP	21	192	5
HLD	22	0	3	384
TAP	22	192	2
HLD	23	0	4	192
STR	23	192	0
SI_	23	192	0	96	96	3
STR	23	288	7
SI_	23	288	7	96	96	4
STR	24	192	1
SCR	24	192	1	96	96	4
STR	25	0	6
SCL	25	0	6	96	96	3
STR	25	192	1
SCR	25	192	1	96	96	4
STR	26	0	6
SCL	26	0	6	96	96	3
STR	26	192	1
SCR	26	192	1	96	96	4
STR	26	288	0
SCL	26	288	0	96	96	5
TAP	27	192	3
TAP	27	240	4
TAP	27	288	3
TAP	27	336	4
TAP	28	0	3
TAP	28	96	2
TAP	28	96	5
TAP	28	192	1
TAP	28	192	6
BRK	28	288	0
BRK	28	288	7
TAP	29	0	5
TAP	29	48	4
TAP	29	96	5
TAP	29	192	2
TAP	29	240	3
TAP	29	288	2
TAP	30	0	5
TAP	30	48	4
TAP	30	96	5
TAP	30	192	2
TAP	30	240	3
TAP	30	288	2
TAP	31	0	4
HLD	31	0	5	96
HLD	31	96	6	96
HLD	31	192	7	96
HLD	31	288	0	96
HLD	32	0	1	96
HLD	32	96	2	96
HLD	32	192	3	96
TAP	32	288	4
TAP	33	0	2
TAP	33	48	3
TAP	33	96	2
TAP	33	192	5
TAP	33	240	4
TAP	33	288	5
TAP	34	0	2
TAP	34	48	3
TAP	34	96	2
TAP	34	192	5
TAP	34	240	4
TAP	34	288	5
HLD	35	0	2	96
TAP	35	0	3
HLD	35	96	1	96
HLD	35	192	0	96
HLD	35	288	7	96
HLD	36	0	6	96
HLD	36	96	5	96
HLD	36	192	4	96
TAP	36	288	3
TAP	37	0	1
TAP	37	48	0
TAP	37	96	1
TAP	37	192	6
TAP	37	240	7
TAP	37	288	6
TAP	38	0	1
TAP	38	48	0
TAP	38	96	1
TAP	38	192	6
TAP	38	240	7
TAP	38	288	6
TAP	39	0	0
HLD	39	0	1	96
HLD	39	96	7	96
HLD	39	192	2	96
HLD	39	288	3	96
HLD	40	0	6	96
HLD	40	96	5	96
HLD	40	192	4	96
TAP	40	288	3
TAP	41	0	6
TAP	41	48	7
TAP	41	96	6
TAP	41	192	1
TAP	41	240	0
TAP	41	288	1
TAP	42	0	6
TAP	42	48	7
TAP	42	96	6
TAP	42	192	1
TAP	42	240	0
TAP	42	288	1
HLD	43	0	6	96
TAP	43	0	7
HLD	43	96	4	96
HLD	43	192	2	96
HLD	43	288	0	96
BRK	44	0	7
STR	45	0	1
SCR	45	0	1	96	96	4
HLD	45	192	0	192
STR	46	0	6
SCL	46	0	6	96	96	3
HLD	46	192	7	192
TAP	47	0	0
TAP	47	192	3
TAP	47	192	4
STR	47	288	0
SCR	47	288	0	96	96	3
STR	47	288	7
SCL	47	288	7	96	96	4
TAP	48	288	2
TAP	48	288	5
HLD	49	0	6	96
HLD	49	0	7	96
HLD	49	144	2	96
HLD	49	144	3	96
HLD	49	288	0	96
HLD	49	288	1	96
HLD	50	48	4	96
HLD	50	48	5	96
HLD	50	192	0	96
HLD	50	192	7	96
HLD	51	0	2	144
TAP	51	144	3
TAP	51	192	3
TAP	51	288	7
HLD	52	0	5	144
TAP	52	144	4
TAP	52	192	4
TAP	52	288	0
HLD	53	0	2	144
TAP	53	144	3
TAP	53	192	3
TAP	53	288	0
TAP	53	288	5
HLD	54	0	5	144
TAP	54	144	4
TAP	54	192	4
BRK	54	288	2
BRK	54	288	7
TAP	55	0	1
TAP	55	96	4
TAP	55	96	5
TAP	55	192	6
TAP	55	288	2
TAP	55	288	3
TAP	56	0	0
TAP	56	96	4
TAP	56	96	5
HLD	56	192	7	96
TAP	56	288	0
HLD	56	336	0	96
TAP	57	48	7
TAP	57	96	7
TAP	57	192	0
TAP	57	192	1
TAP	57	288	3
TAP	57	288	7
TAP	58	0	6
TAP	58	0	7
TAP	58	96	0
TAP	58	96	4
TAP	58	192	0
TAP	58	192	1
TAP	58	288	3
TAP	58	288	7
TAP	59	0	6
TAP	59	96	2
TAP	59	96	3
TAP	59	192	1
TAP	59	288	4
TAP	59	288	5
TAP	60	0	7
TAP	60	96	2
TAP	60	96	3
HLD	60	192	0	96
TAP	60	288	7
HLD	60	336	7	96
TAP	61	48	0
TAP	61	96	0
TAP	61	192	6
TAP	61	192	7
TAP	61	288	0
TAP	61	288	4
TAP	62	0	0
TAP	62	0	1
TAP	62	96	3
TAP	62	96	7
TAP	62	192	6
TAP	62	192	7
TAP	62	288	0
TAP	62	288	4
TAP	63	0	0
TAP	63	0	1
TAP	63	96	7
TAP	63	144	7
TAP	63	240	2
TAP	63	288	3
TAP	63	336	4
TAP	64	48	6
TAP	64	96	5
TAP	64	144	4
TAP	64	240	2
TAP	64	288	3
TAP	64	336	4
TAP	65	48	6
TAP	65	48	7
TAP	65	96	6
TAP	65	96	7
TAP	65	192	0
TAP	65	192	1
TAP	65	288	4
TAP	66	0	6
TAP	66	0	7
TAP	66	96	3
TAP	66	192	0
TAP	66	192	1
TAP	66	288	4
TAP	67	0	6
TAP	67	0	7
TAP	67	96	0
TAP	67	144	0
TAP	67	240	5
TAP	67	288	4
TAP	67	336	3
TAP	68	48	1
TAP	68	96	2
TAP	68	144	3
TAP	68	240	5
TAP	68	288	4
TAP	68	336	3
TAP	69	48	0
TAP	69	48	1
TAP	69	96	0
TAP	69	96	1
TAP	69	192	6
TAP	69	192	7
TAP	69	288	3
TAP	70	0	0
TAP	70	0	1
TAP	70	96	4
TAP	70	192	6
TAP	70	192	7
STR	70	288	3
SCR	70	288	3	96	192	6

T_REC_TAP	233
T_REC_BRK	5
T_REC_XTP	0
T_REC_HLD	70
T_REC_XHO	0
T_REC_STR	14
T_REC_BST	0
T_REC_XST	0
T_REC_TTP	0
T_REC_THO	0
T_REC_SLD	14
T_REC_ALL	336
T_NUM_TAP	247
T_NUM_BRK	5
T_NUM_HLD	70
T_NUM_SLD	14
T_NUM_ALL	336
T_JUDGE_TAP	252
T_JUDGE_HLD	190
T_JUDGE_SLD	14
T_JUDGE_ALL	456
TTM_EACHPAIRS	48
TTM_SCR_TAP	123500
TTM_SCR_BRK	13000
TTM_SCR_HLD	70000
TTM_SCR_SLD	21000
TTM_SCR_ALL	227500
TTM_SCR_S	220200
TTM_SCR_SS	227000
TTM_RAT_ACV	10022

