VERSION	0.00.00	1.03.00
FES_MODE	0
BPM_DEF	150.000	150.000	150.000	150.000
MET_DEF	4	4
RESOLUTION	384
CLK_DEF	384
COMPATIBLE_CODE	MA2

BPM	0	0	150.000
MET	0	0	4	4

TAP	5	0	3
TAP	5	96	3
TAP	5	192	3
TAP	6	0	4
TAP	6	96	4
TAP	6	192	4
HLD	7	0	3	384
TAP	9	0	3
TAP	9	96	4
TAP	9	192	3
TAP	10	0	4
TAP	10	96	3
TAP	10	192	4
STR	11	0	5
SI_	11	0	5	96	192	2
HLD	12	0	1	192
TAP	13	0	2
TAP	13	96	2
TAP	13	192	3
TAP	14	0	5
TAP	14	96	5
TAP	14	192	4
HLD	15	0	3	384
TAP	17	0	3
TAP	17	96	4
TAP	17	192	5
TAP	18	0	4
TAP	18	96	3
TAP	18	192	2
TAP	19	0	0
TAP	19	0	1
TAP	19	192	6
TAP	19	192	7
BRK	20	0	0
BRK	20	0	7
TAP	20	192	1
HLD	21	0	1	192
HLD	22	0	6	192
STR	23	0	0
SI_	23	0	0	96	288	3
STR	23	0	7
SI_	23	0	7	96	288	4
TAP	24	192	5
TAP	24	288	5
TAP	25	0	4
TAP	25	0	5
TAP	25	192	4
TAP	25	288	4
TAP	26	0	3
TAP	26	0	4
TAP	26	192	3
TAP	26	288	3
STR	27	0	3
SI_	27	0	3	96	192	0
BRK	28	0	7
TAP	29	0	6
TAP	29	96	6
TAP	29	192	5
TAP	29	288	5
TAP	30	0	4
TAP	30	96	4
TAP	30	192	3
TAP	30	288	3
TAP	31	0	2
TAP	31	0	3
TAP	32	0	1
TAP	32	0	4
STR	33	0	3
SCR	33	0	3	96	192	6
STR	34	0	7
SCR	34	0	7	96	192	2
STR	35	0	3
SCR	35	0	3	96	192	6
STR	36	0	7
SCR	36	0	7	96	192	2
STR	37	0	6
SI_	37	0	6	96	192	2
STR	38	0	3
SI_	38	0	3	96	192	7
TAP	39	0	0
TAP	39	192	0
TAP	40	0	1
TAP	40	192	1
TAP	41	0	2
TAP	41	96	3
TAP	41	192	4
TAP	41	288	5
TAP	42	0	5
TAP	42	96	4
TAP	42	192	3
TAP	42	288	2
TAP	43	0	2
TAP	43	0	3
TAP	43	192	0
TAP	43	192	1
BRK	44	0	6
BRK	44	0	7
TAP	44	192	0
TAP	44	288	0
STR	45	0	7
SI_	45	0	7	96	192	4
STR	46	0	3
SI_	46	0	3	96	192	0
TAP	47	0	7
TAP	47	96	7
TAP	47	192	6
TAP	47	288	6
HLD	48	0	5	192
TAP	49	0	4
TAP	49	96	4
TAP	49	192	4
TAP	50	0	3
TAP	50	96	3
TAP	50	192	3
STR	51	0	2
SI_	51	0	2	96	192	5
TAP	52	0	6
TAP	52	96	7
TAP	52	192	0
TAP	52	288	1
HLD	53	0	1	192
TAP	53	192	0
HLD	54	0	0	192
BRK	54	192	7
TAP	55	0	0
TAP	55	96	7
TAP	55	192	0
TAP	55	288	7
TAP	56	0	0
TAP	56	96	1
TAP	56	192	2
TAP	56	288	3
HLD	57	0	3	192
TAP	57	192	4
HLD	58	0	4	192
TAP	58	192	3
TAP	59	0	3
TAP	59	96	4
TAP	59	192	3
TAP	59	288	4
TAP	60	0	3
TAP	60	96	2
TAP	60	192	1
TAP	60	288	0
HLD	61	0	7	192
TAP	61	192	0
HLD	62	0	0	192
TAP	62	192	7
TAP	63	0	0
TAP	63	96	7
TAP	63	192	0
TAP	63	288	7
TAP	64	0	0
TAP	64	96	7
TAP	64	192	6
TAP	64	288	5
HLD	65	0	4	192
TAP	65	192	2
HLD	66	0	3	192
TAP	66	192	5
TAP	67	0	3
TAP	67	96	4
TAP	67	192	3
TAP	67	288	4
TAP	68	0	3
TAP	68	96	4
TAP	68	192	5
TAP	68	288	6
HLD	69	0	6	192
TAP	69	192	7
HLD	70	0	1	192
TAP	70	192	0
BRK	71	0	0
BRK	71	0	7

T_REC_TAP	124
T_REC_BRK	8
T_REC_XTP	0
T_REC_HLD	16
T_REC_XHO	0
T_REC_STR	13
T_REC_BST	0
T_REC_XST	0
T_REC_TTP	0
T_REC_THO	0
T_REC_SLD	13
T_REC_ALL	174
T_NUM_TAP	137
T_NUM_BRK	8
T_NUM_HLD	16
T_NUM_SLD	13
T_NUM_ALL	174
T_JUDGE_TAP	145
T_JUDGE_HLD	72
T_JUDGE_SLD	13
T_JUDGE_ALL	230
TTM_EACHPAIRS	12
TTM_SCR_TAP	68500
TTM_SCR_BRK	20800
TTM_SCR_HLD	16000
TTM_SCR_SLD	19500
TTM_SCR_ALL	124800
TTM_SCR_S	120300
TTM_SCR_SS	124000
TTM_RAT_ACV	10064

