VERSION	0.00.00	1.03.00
FES_MODE	0
BPM_DEF	132.000	132.000	132.000	132.000
MET_DEF	4	4
RESOLUTION	384
CLK_DEF	384
COMPATIBLE_CODE	MA2

BPM	0	0	132.000
MET	0	0	4	4

TAP	2	3	7
TAP	2	51	0
TAP	2	99	0
TAP	2	147	7
TAP	2	171	1
TAP	2	219	1
TAP	2	267	1
TAP	2	291	5
TAP	2	339	1
TAP	3	3	5
TAP	3	51	2
TAP	3	99	5
TAP	3	147	1
TAP	3	171	5
TAP	3	219	3
TAP	3	267	3
TAP	3	291	7
TAP	3	339	0
TAP	4	51	6
TAP	4	75	7
TAP	4	99	6
TAP	4	147	1
TAP	4	171	0
TAP	4	195	1
TAP	4	243	0
TAP	4	291	2
TAP	4	339	4
TAP	5	3	2
TAP	5	27	3
TAP	5	51	2
TAP	5	75	3
TAP	5	99	2
HLD	5	147	7	48
STR	5	195	5
SI_	5	195	5	96	48	2
TAP	5	219	7
HLD	5	243	0	96
TAP	6	3	1
TAP	6	27	0
TAP	6	51	1
TAP	6	75	0
TAP	6	99	1
TAP	6	147	2
TAP	6	195	6
TAP	6	219	7
TAP	6	243	6
TAP	6	267	7
TAP	6	291	6
TAP	6	339	1
TAP	7	3	5
TAP	7	27	4
TAP	7	51	5
TAP	7	75	4
TAP	7	99	5
TAP	7	147	6
TAP	7	195	3
TAP	7	219	2
TAP	7	243	3
TAP	7	267	2
TAP	7	291	3
TAP	7	339	0
TAP	8	3	7
TAP	8	51	0
TAP	8	99	6
TAP	8	147	1
TAP	8	195	5
TAP	8	243	2
TAP	8	291	4
TAP	8	339	3
TAP	9	3	5
TAP	9	27	4
TAP	9	51	5
TAP	9	75	4
TAP	9	99	5
HLD	9	147	0	48
STR	9	195	2
SI_	9	195	2	96	48	5
TAP	9	219	0
HLD	9	243	7	96
TAP	10	3	0
TAP	10	3	7
TAP	10	99	4
TAP	10	99	5
TAP	10	195	0
TAP	10	195	7
TAP	10	291	2
TAP	10	291	3
TAP	11	3	1
TAP	11	27	6
TAP	11	75	6
TAP	11	99	2
TAP	11	147	0
TAP	11	195	2
TAP	11	243	5
BRK	11	291	0
BRK	11	291	5
TAP	12	3	5
TAP	12	51	4
TAP	12	99	1
TAP	12	147	4
TAP	12	195	5
TAP	12	243	5
HLD	12	267	7	72
TAP	12	339	3
TAP	13	3	2
TAP	13	51	2
HLD	13	75	0	72
TAP	13	147	4
TAP	13	195	6
TAP	13	195	7
TAP	13	291	2
TAP	13	291	3
TAP	14	51	0
TAP	14	99	6
TAP	14	147	2
TAP	14	195	4
TAP	14	243	3
TAP	14	267	5
TAP	14	339	7
TAP	15	3	6
TAP	15	3	7
STR	15	75	3
SI_	15	75	3	96	120	0
STR	15	75	5
SI_	15	75	5	96	120	1
TAP	16	3	2
TAP	16	51	3
TAP	16	99	6
TAP	16	147	3
TAP	16	195	2
TAP	16	243	2
HLD	16	267	0	72
TAP	16	339	4
TAP	17	3	5
TAP	17	51	5
HLD	17	75	7	72
TAP	17	147	3
TAP	17	195	0
TAP	17	195	1
TAP	17	291	4
TAP	17	291	5
HLD	18	3	5	192
TAP	18	99	1
TAP	18	147	0
TAP	18	195	1
TAP	18	267	2
TAP	18	315	2
TAP	18	339	0
TAP	19	3	7
TAP	19	51	6
TAP	19	99	5
TAP	19	147	6
STR	19	243	0
SI_	19	243	0	96	48	5
TAP	19	243	7
HLD	19	291	6	96
TAP	20	51	4
TAP	20	99	5
TAP	20	147	7
TAP	20	195	5
TAP	20	243	4
HLD	20	267	7	72
TAP	20	339	3
TAP	21	3	2
TAP	21	51	0
HLD	21	75	3	72
TAP	21	147	4
TAP	21	195	7
TAP	21	243	4
TAP	21	291	3
TAP	21	291	4
TAP	22	51	5
TAP	22	99	2
TAP	22	147	4
TAP	22	195	3
TAP	22	243	0
TAP	22	270	3
TAP	22	339	5
TAP	23	3	7
TAP	23	51	7
HLD	23	75	2	120
TAP	23	291	3
TAP	23	291	4
TAP	24	3	4
TAP	24	3	5
TAP	24	51	6
TAP	24	99	5
TAP	24	147	4
TAP	24	195	3
TAP	24	243	2
HLD	24	267	1	72
TAP	24	339	2
TAP	25	3	3
TAP	25	51	4
HLD	25	75	3	72
TAP	25	147	4
TAP	25	195	0
TAP	25	243	7
TAP	25	291	4
TAP	25	291	7
TAP	26	99	2
TAP	26	147	5
TAP	26	195	6
TAP	26	267	4
TAP	26	339	0
TAP	26	339	3
TAP	27	3	2
TAP	27	51	2
TAP	27	75	7
TAP	27	147	0
STR	27	195	0
SI_	27	195	0	96	24	3
STR	27	195	7
SI_	27	195	7	96	24	4
TAP	28	3	7
TAP	28	51	6
TAP	28	99	1
TAP	28	147	0
TAP	28	195	7
TAP	28	243	5
TAP	28	291	2
TAP	28	339	0
TAP	29	3	7
TAP	29	51	4
TAP	29	99	3
TAP	29	147	0
STR	29	195	0
SCR	29	195	0	96	24	3
STR	29	195	7
SCL	29	195	7	96	24	4
TAP	30	3	2
STR	30	3	5
SI_	30	3	5	96	144	2
TAP	30	99	3
TAP	30	195	4
TAP	30	291	5
TAP	31	3	0
TAP	31	3	7
TAP	31	75	3
TAP	31	75	4
TAP	31	147	0
TAP	31	147	7
TAP	31	195	1
TAP	31	195	6
TAP	31	243	3
TAP	31	243	4
BRK	31	291	1
BRK	31	291	6
TAP	32	3	0
HLD	32	3	4	288
TAP	32	51	5
TAP	32	99	2
TAP	32	195	0
TAP	32	243	5
TAP	32	291	2
TAP	33	3	4
TAP	33	51	3
TAP	33	99	1
TAP	33	147	3
TAP	33	195	4
TAP	33	243	6
TAP	33	291	4
TAP	33	291	6
HLD	34	3	0	72
HLD	34	75	7	72
TAP	34	147	5
HLD	34	195	7	72
HLD	34	267	0	72
TAP	34	339	2
TAP	35	3	1
TAP	35	75	6
TAP	35	147	4
HLD	35	195	1	96
TAP	35	291	4
TAP	35	339	4
TAP	36	3	0
TAP	36	75	1
TAP	36	147	3
TAP	36	195	7
TAP	36	267	6
TAP	36	339	4
TAP	37	3	5
TAP	37	51	5
HLD	37	75	2	72
TAP	37	147	7
STR	37	195	2
SI_	37	195	2	96	24	5
STR	37	195	7
SI_	37	195	7	96	24	2
TAP	38	3	7
TAP	38	51	6
TAP	38	99	5
TAP	38	147	4
TAP	38	195	3
TAP	38	243	2
TAP	38	291	1
TAP	38	339	0
STR	39	3	0
SCR	39	3	0	96	36	3
TAP	39	3	2
STR	39	195	0
SCR	39	195	0	96	36	3
TAP	39	195	5
STR	40	3	5
SI_	40	3	5	96	96	2
STR	40	3	7
SI_	40	3	7	96	96	4
STR	41	3	1
SCL	41	3	1	96	93	6
STR	41	99	6
SCL	41	99	6	96	93	3
STR	41	195	3
SCL	41	195	3	96	96	0
STR	42	99	1
SI_	42	99	1	96	96	4
STR	42	99	6
SI_	42	99	6	96	96	3
STR	43	3	6
SI_	43	3	6	96	96	1
STR	43	99	1
SCL	43	99	1	96	93	6
STR	43	195	6
SCL	43	195	6	96	48	3
TAP	44	3	0
HLD	44	3	4	288
TAP	44	51	5
TAP	44	99	2
TAP	44	195	0
TAP	44	243	5
TAP	44	291	2
TAP	45	3	7
TAP	45	51	0
TAP	45	75	2
TAP	45	123	0
TAP	45	147	7
TAP	45	195	0
TAP	45	243	7
TAP	45	291	6
TAP	45	339	5
HLD	46	3	3	72
HLD	46	75	4	72
TAP	46	147	6
HLD	46	195	5	72
HLD	46	267	4	72
TAP	46	339	1
TAP	47	3	2
TAP	47	51	2
TAP	47	75	3
TAP	47	123	3
STR	47	147	6
SI_	47	147	6	96	48	3
TAP	47	195	6
TAP	47	291	6
TAP	47	339	4
TAP	48	3	2
TAP	48	51	2
TAP	48	75	0
TAP	48	123	0
TAP	48	147	3
TAP	48	195	5
TAP	48	243	5
TAP	48	267	7
TAP	48	315	7
TAP	48	339	4
STR	49	3	1
SI_	49	3	1	96	48	6
TAP	49	75	7
TAP	49	147	0
STR	49	195	0
SI_	49	195	0	96	48	3
STR	49	195	7
SI_	49	195	7	96	48	4
TAP	50	3	0
TAP	50	51	1
TAP	50	99	2
TAP	50	147	3
TAP	50	195	4
TAP	50	243	5
TAP	50	291	6
TAP	50	339	7
STR	51	3	0
SCR	51	3	0	96	48	3
TAP	51	3	7
STR	51	99	5
SI_	51	99	5	96	48	2
STR	51	195	1
SI_	51	195	1	96	48	6
TAP	52	3	0
TAP	52	3	4
TAP	52	51	4
TAP	52	51	5
BRK	52	99	2
TAP	52	99	4
TAP	52	147	4
TAP	52	195	0
TAP	52	195	4
TAP	52	243	4
TAP	52	243	5
BRK	52	291	2
TAP	52	291	4
TAP	52	339	4
TAP	53	3	6
TAP	53	51	0
TAP	53	75	7
TAP	53	123	7
TAP	53	147	1
STR	53	195	0
SI_	53	195	0	96	48	5
STR	53	195	7
SI_	53	195	7	96	48	2
TAP	54	3	6
TAP	54	51	2
TAP	54	75	0
TAP	54	123	2
TAP	54	147	6
TAP	54	195	7
TAP	54	243	4
TAP	54	267	1
TAP	54	315	4
TAP	54	339	7
TAP	55	3	5
TAP	55	27	3
TAP	55	51	6
HLD	55	75	0	48
TAP	55	123	1
TAP	55	147	0
STR	55	195	0
SI_	55	195	0	96	48	4
STR	55	195	7
SI_	55	195	7	96	48	3
BRK	55	291	0
BRK	55	291	7
TAP	56	3	2
TAP	56	51	0
TAP	56	75	3
TAP	56	123	5
TAP	56	147	7
TAP	56	195	5
TAP	56	243	4
TAP	56	267	7
TAP	56	315	0
TAP	56	339	3
TAP	57	3	1
TAP	57	27	7
TAP	57	51	2
TAP	57	75	6
TAP	57	123	3
TAP	57	147	4
STR	57	195	3
SI_	57	195	3	96	48	0
STR	57	195	4
SI_	57	195	4	96	48	7
TAP	58	3	7
TAP	58	51	6
TAP	58	99	7
TAP	58	147	5
TAP	58	195	7
TAP	58	243	4
TAP	58	291	7
TAP	58	339	3
STR	59	3	0
SCR	59	3	0	96	36	3
BRK	59	3	2
STR	59	195	0
SCR	59	195	0	96	36	3
BRK	59	195	5
TAP	60	3	3
TAP	60	51	5
TAP	60	99	5
TAP	60	147	3
TAP	60	171	6
TAP	60	219	6
TAP	60	267	6
TAP	60	291	2
TAP	60	339	4
TAP	61	3	1
TAP	61	51	0
TAP	61	99	1
TAP	61	147	7
TAP	61	171	0
TAP	61	219	5
TAP	61	267	5
TAP	61	291	6
TAP	61	291	7
TAP	61	339	0
TAP	61	339	7
TAP	62	51	4
TAP	62	75	2
TAP	62	99	4
TAP	62	147	3
TAP	62	171	6
TAP	62	195	3
TAP	62	243	0
TAP	62	243	7
TAP	62	291	0
TAP	62	291	1
TAP	62	339	1
TAP	62	339	2
TAP	63	3	2
TAP	63	27	3
TAP	63	51	2
TAP	63	75	4
TAP	63	99	2
HLD	63	147	5	48
TAP	63	195	4
BRK	63	243	6
BRK	63	243	7
BRK	63	291	2
BRK	63	291	3

T_REC_TAP	388
T_REC_BRK	14
T_REC_XTP	0
T_REC_HLD	29
T_REC_XHO	0
T_REC_STR	39
T_REC_BST	0
T_REC_XST	0
T_REC_TTP	0
T_REC_THO	0
T_REC_SLD	39
T_REC_ALL	509
T_NUM_TAP	427
T_NUM_BRK	14
T_NUM_HLD	29
T_NUM_SLD	39
T_NUM_ALL	509
T_JUDGE_TAP	441
T_JUDGE_HLD	65
T_JUDGE_SLD	39
T_JUDGE_ALL	545
TTM_EACHPAIRS	55
TTM_SCR_TAP	213500
TTM_SCR_BRK	36400
TTM_SCR_HLD	29000
TTM_SCR_SLD	58500
TTM_SCR_ALL	337400
TTM_SCR_S	325950
TTM_SCR_SS	336000
TTM_RAT_ACV	10041

