VERSION	0.00.00	1.03.00
FES_MODE	0
BPM_DEF	132.000	132.000	132.000	132.000
MET_DEF	4	4
RESOLUTION	384
CLK_DEF	384
COMPATIBLE_CODE	MA2

BPM	0	0	132.000
MET	0	0	4	4

TAP	2	0	0
TAP	2	192	1
TAP	3	0	2
TAP	3	192	3
TAP	4	0	4
TAP	4	192	5
TAP	5	0	6
TAP	5	96	7
TAP	5	192	6
TAP	5	288	6
TAP	5	288	7
TAP	6	0	0
TAP	6	96	1
TAP	6	192	0
TAP	7	0	6
TAP	7	96	7
TAP	7	192	6
TAP	8	0	5
TAP	8	96	4
TAP	8	192	5
TAP	8	288	4
TAP	9	0	3
TAP	9	96	3
HLD	9	192	4	96
TAP	10	0	7
TAP	10	96	6
TAP	10	192	5
TAP	10	288	4
TAP	11	0	3
TAP	11	96	2
TAP	11	192	1
BRK	11	288	0
BRK	11	288	1
HLD	12	0	0	96
HLD	12	192	1	96
HLD	13	0	2	96
TAP	13	192	3
TAP	13	288	3
TAP	13	288	4
STR	14	0	5
SI_	14	0	5	96	96	2
STR	15	0	1
SI_	15	0	1	96	96	6
TAP	16	0	5
TAP	16	96	6
TAP	16	192	7
TAP	17	0	6
TAP	17	96	7
TAP	17	192	0
STR	18	0	0
SI_	18	0	0	96	96	3
STR	18	0	7
SI_	18	0	7	96	96	4
STR	19	0	3
SCL	19	0	3	96	96	0
STR	19	0	4
SCR	19	0	4	96	96	7
TAP	20	0	1
TAP	20	96	2
TAP	20	192	3
TAP	20	288	2
TAP	21	0	3
TAP	21	96	4
TAP	21	192	5
TAP	21	288	3
TAP	21	288	4
STR	22	0	4
SI_	22	0	4	96	96	7
STR	22	192	0
SI_	22	192	0	96	96	3
STR	23	0	5
SI_	23	0	5	96	96	2
STR	23	192	1
SI_	23	192	1	96	96	6
TAP	24	0	7
TAP	24	96	0
TAP	24	192	1
TAP	24	288	0
TAP	25	0	7
TAP	25	96	6
HLD	25	192	5	96
TAP	26	96	3
TAP	26	192	2
TAP	26	288	4
TAP	27	0	5
TAP	27	96	2
TAP	27	192	2
TAP	27	192	5
HLD	28	0	0	672
TAP	28	96	1
TAP	28	192	2
TAP	28	288	3
TAP	29	0	4
TAP	29	96	5
TAP	29	192	6
TAP	29	288	7
HLD	30	0	7	672
TAP	30	96	6
TAP	30	192	5
TAP	30	288	4
TAP	31	0	3
TAP	31	96	2
TAP	31	192	1
BRK	31	288	0
TAP	32	0	1
TAP	32	48	1
TAP	32	96	1
TAP	32	192	1
TAP	32	240	1
TAP	32	288	1
TAP	33	0	2
TAP	33	96	1
TAP	33	192	0
TAP	33	288	7
TAP	34	0	6
TAP	34	48	6
TAP	34	96	6
TAP	34	192	6
TAP	34	240	6
TAP	34	288	6
STR	35	0	0
SI_	35	0	0	96	96	3
STR	35	192	4
SI_	35	192	4	96	96	7
TAP	36	0	0
TAP	36	96	1
TAP	36	192	2
TAP	36	288	3
TAP	37	0	7
TAP	37	96	6
TAP	37	192	5
TAP	37	288	4
STR	38	0	3
SI_	38	0	3	96	96	0
STR	38	0	4
SI_	38	0	4	96	96	7
STR	39	0	0
SCR	39	0	0	96	96	3
STR	39	0	7
SCL	39	0	7	96	96	4
HLD	40	0	2	288
TAP	40	96	4
TAP	40	192	3
TAP	40	288	4
HLD	41	0	5	288
TAP	41	96	3
TAP	41	192	4
TAP	41	288	3
HLD	42	0	1	672
TAP	42	96	0
TAP	42	192	7
TAP	42	288	6
TAP	43	0	5
TAP	43	96	4
TAP	43	192	3
BRK	43	288	2
TAP	44	0	1
TAP	44	48	1
TAP	44	96	1
TAP	44	192	1
TAP	44	240	1
TAP	44	288	1
TAP	45	0	2
TAP	45	96	1
TAP	45	192	0
TAP	45	288	7
TAP	46	0	6
TAP	46	48	6
TAP	46	96	6
TAP	46	192	6
TAP	46	240	6
TAP	46	288	6
STR	47	0	0
SI_	47	0	0	96	96	3
STR	47	192	4
SI_	47	192	4	96	96	7
TAP	48	0	0
TAP	48	96	1
TAP	48	192	2
TAP	48	288	3
TAP	49	0	7
TAP	49	96	6
TAP	49	192	5
TAP	49	288	4
STR	50	0	3
SI_	50	0	3	96	96	0
STR	50	0	4
SI_	50	0	4	96	96	7
STR	51	0	0
SCR	51	0	0	96	96	3
STR	51	0	7
SCL	51	0	7	96	96	4
TAP	52	0	2
TAP	52	48	4
TAP	52	96	2
TAP	52	192	2
TAP	52	240	4
TAP	52	288	2
HLD	53	0	2	288
TAP	53	96	3
TAP	53	192	4
TAP	53	288	5
TAP	54	0	5
TAP	54	48	3
TAP	54	96	5
TAP	54	192	5
TAP	54	240	3
TAP	54	288	5
STR	55	0	3
SI_	55	0	3	96	96	0
STR	55	192	7
SCR	55	192	7	96	96	2
TAP	56	0	1
TAP	56	96	0
TAP	56	192	7
TAP	56	288	6
STR	57	0	0
SI_	57	0	0	96	96	3
STR	57	0	7
SI_	57	0	7	96	96	4
TAP	58	0	3
TAP	58	0	4
TAP	58	96	2
TAP	58	96	5
TAP	58	192	1
TAP	58	192	6
TAP	58	288	0
TAP	58	288	7
STR	59	0	0
SCR	59	0	0	96	96	3
STR	59	192	4
SCR	59	192	4	96	96	7
TAP	60	0	0
TAP	60	96	7
TAP	60	192	6
TAP	60	288	5
TAP	61	0	4
TAP	61	96	3
TAP	61	192	2
TAP	61	288	1
TAP	62	0	2
TAP	62	96	3
TAP	62	192	4
TAP	62	288	5
TAP	63	0	6
STR	63	96	7
SI_	63	96	7	96	96	2
BRK	63	288	1

T_REC_TAP	174
T_REC_BRK	5
T_REC_XTP	0
T_REC_HLD	11
T_REC_XHO	0
T_REC_STR	29
T_REC_BST	0
T_REC_XST	0
T_REC_TTP	0
T_REC_THO	0
T_REC_SLD	29
T_REC_ALL	248
T_NUM_TAP	203
T_NUM_BRK	5
T_NUM_HLD	11
T_NUM_SLD	29
T_NUM_ALL	248
T_JUDGE_TAP	208
T_JUDGE_HLD	70
T_JUDGE_SLD	29
T_JUDGE_ALL	307
TTM_EACHPAIRS	16
TTM_SCR_TAP	101500
TTM_SCR_BRK	13000
TTM_SCR_HLD	11000
TTM_SCR_SLD	43500
TTM_SCR_ALL	169000
TTM_SCR_S	163450
TTM_SCR_SS	168500
TTM_RAT_ACV	10029

