VERSION	0.00.00	1.03.00
FES_MODE	0
BPM_DEF	132.000	132.000	132.000	132.000
MET_DEF	4	4
RESOLUTION	384
CLK_DEF	384
COMPATIBLE_CODE	MA2

BPM	0	0	132.000
MET	0	0	4	4

TAP	6	0	3
TAP	6	0	4
TAP	7	0	3
TAP	7	0	4
TAP	8	0	2
TAP	8	192	3
TAP	8	192	4
TAP	9	288	3
STR	10	192	5
SI_	10	192	5	96	192	2
TAP	11	288	3
TAP	11	288	4
TAP	12	0	2
TAP	12	192	5
TAP	13	0	0
TAP	13	192	3
TAP	13	192	4
HLD	13	288	5	288
TAP	15	0	5
TAP	15	96	5
TAP	15	192	2
TAP	15	288	2
TAP	16	192	6
TAP	17	0	3
TAP	17	0	4
TAP	17	192	1
TAP	17	192	6
TAP	17	288	1
TAP	17	288	6
TAP	18	192	3
TAP	18	192	4
BRK	19	0	1
BRK	19	0	2
TAP	20	0	3
TAP	20	192	3
TAP	21	0	3
TAP	21	192	1
TAP	21	288	1
TAP	22	0	0
TAP	22	192	1
TAP	23	0	0
TAP	23	192	1
TAP	24	0	4
TAP	24	192	4
TAP	25	0	5
TAP	25	192	5
STR	25	288	6
SI_	25	288	6	96	192	1
TAP	28	0	6
TAP	28	96	1
TAP	28	192	6
TAP	28	288	1
TAP	29	0	6
TAP	29	96	1
TAP	29	192	1
TAP	29	192	6
HLD	30	0	2	288
TAP	31	0	2
TAP	31	0	5
TAP	32	0	0
TAP	32	192	0
TAP	33	0	1
TAP	33	192	7
TAP	33	288	7
TAP	34	0	1
TAP	34	192	7
TAP	35	0	4
TAP	35	96	5
TAP	35	192	3
TAP	35	288	2
TAP	36	0	1
TAP	36	192	6
TAP	37	0	2
TAP	37	0	5
TAP	37	192	1
TAP	37	192	6
HLD	38	0	7	192
TAP	39	0	1
BRK	39	192	0
BRK	39	192	6
TAP	41	0	0
TAP	41	192	1
TAP	41	288	1
TAP	42	0	0
TAP	42	192	7
TAP	43	0	3
TAP	43	0	4
TAP	43	192	1
TAP	43	192	6
TAP	44	0	0
TAP	44	192	0
TAP	45	0	1
TAP	45	192	7
TAP	45	288	7
TAP	46	0	1
TAP	46	192	7
TAP	47	0	4
TAP	47	96	5
TAP	47	192	3
TAP	47	288	2
TAP	48	0	1
TAP	48	192	6
TAP	49	0	2
TAP	49	0	5
TAP	49	192	1
TAP	49	192	6
TAP	50	0	0
TAP	50	0	6
TAP	50	192	1
TAP	50	192	7
BRK	51	0	1
BRK	51	0	6
TAP	52	0	0
TAP	52	192	0
TAP	53	0	1
TAP	53	192	7
TAP	53	288	7
TAP	54	0	1
TAP	54	192	7
TAP	55	0	4
TAP	55	96	5
TAP	55	192	3
TAP	55	288	2
TAP	56	0	1
TAP	56	192	6
TAP	57	0	2
TAP	57	0	5
TAP	57	192	1
TAP	57	192	6
HLD	58	0	7	192
TAP	59	0	1
BRK	59	192	0
BRK	59	192	6
TAP	61	0	6
TAP	61	192	6
TAP	62	0	1
TAP	62	192	6
HLD	63	0	1	192
TAP	63	288	2
TAP	63	288	3

T_REC_TAP	123
T_REC_BRK	8
T_REC_XTP	0
T_REC_HLD	5
T_REC_XHO	0
T_REC_STR	2
T_REC_BST	0
T_REC_XST	0
T_REC_TTP	0
T_REC_THO	0
T_REC_SLD	2
T_REC_ALL	140
T_NUM_TAP	125
T_NUM_BRK	8
T_NUM_HLD	5
T_NUM_SLD	2
T_NUM_ALL	140
T_JUDGE_TAP	133
T_JUDGE_HLD	24
T_JUDGE_SLD	2
T_JUDGE_ALL	159
TTM_EACHPAIRS	26
TTM_SCR_TAP	62500
TTM_SCR_BRK	20800
TTM_SCR_HLD	5000
TTM_SCR_SLD	3000
TTM_SCR_ALL	91300
TTM_SCR_S	87800
TTM_SCR_SS	90500
TTM_RAT_ACV	10088

