VERSION	0.00.00	1.03.00
FES_MODE	0
BPM_DEF	136.000	136.000	136.000	136.000
MET_DEF	4	4
RESOLUTION	384
CLK_DEF	384
COMPATIBLE_CODE	MA2

BPM	0	0	136.000
MET	0	0	4	4

TAP	2	0	6
TAP	2	72	5
TAP	2	144	4
STR	2	192	5
SI_	2	192	5	96	49	2
TAP	2	336	1
TAP	3	0	1
TAP	3	72	0
TAP	3	144	1
STR	3	192	0
SI_	3	192	0	96	48	3
STR	3	336	7
SI_	3	336	7	96	48	4
STR	4	96	1
SI_	4	96	1	96	48	6
STR	4	240	5
SI_	4	240	5	96	48	2
TAP	5	0	3
TAP	5	48	4
TAP	5	96	5
TAP	5	144	6
TAP	5	192	0
TAP	5	216	7
TAP	5	264	1
TAP	5	312	3
TAP	5	336	4
TAP	6	0	2
TAP	6	72	1
TAP	6	144	0
STR	6	192	0
SCL	6	192	0	96	48	5
TAP	6	336	4
TAP	7	0	5
TAP	7	72	6
TAP	7	144	7
STR	7	192	0
SI_	7	192	0	96	48	4
STR	7	240	7
SI_	7	240	7	96	48	3
TAP	8	0	5
TAP	8	72	3
TAP	8	144	4
STR	8	192	2
SCR	8	192	2	96	48	5
TAP	8	336	6
TAP	9	0	7
TAP	9	72	0
TAP	9	144	1
STR	9	192	2
SI_	9	192	2	96	48	5
STR	9	240	6
SI_	9	240	6	96	48	1
TAP	10	0	2
TAP	10	72	1
TAP	10	144	0
STR	10	192	7
SCR	10	192	7	96	48	2
TAP	10	336	3
TAP	11	0	4
TAP	11	72	6
TAP	11	144	1
STR	11	192	3
SI_	11	192	3	96	48	6
STR	11	240	4
SI_	11	240	4	96	48	1
TAP	12	0	2
TAP	12	72	0
TAP	12	144	6
STR	12	192	4
SCL	12	192	4	96	48	1
TAP	12	336	0
TAP	13	0	2
TAP	13	72	4
TAP	13	144	6
STR	13	192	0
SI_	13	192	0	96	48	4
STR	13	240	6
SI_	13	240	6	96	48	2
HLD	14	0	1	72
TAP	14	72	2
TAP	14	144	0
HLD	14	192	7	72
TAP	14	264	0
TAP	14	336	6
HLD	15	0	5	72
TAP	15	72	4
TAP	15	144	3
HLD	15	192	0	96
TAP	15	192	7
STR	15	288	1
SCL	15	288	1	96	48	6
TAP	15	336	2
HLD	16	0	5	72
TAP	16	72	4
TAP	16	144	4
HLD	16	192	3	72
TAP	16	264	4
TAP	16	336	2
HLD	17	0	1	72
TAP	17	72	2
TAP	17	144	0
HLD	17	192	2	96
HLD	17	192	5	96
TAP	17	336	0
TAP	17	336	7
HLD	18	0	0	72
TAP	18	72	7
TAP	18	144	0
HLD	18	192	7	72
TAP	18	264	6
TAP	18	336	0
TAP	19	0	3
TAP	19	0	4
STR	19	96	0
SCR	19	96	0	96	48	3
TAP	19	96	7
TAP	19	192	5
TAP	19	288	0
STR	19	288	7
SCL	19	288	7	96	48	4
TAP	20	0	1
TAP	20	72	2
TAP	20	144	2
TAP	20	192	3
TAP	20	288	4
TAP	21	0	0
TAP	21	0	2
TAP	21	96	5
TAP	21	96	7
TAP	21	192	1
TAP	21	192	3
BRK	21	288	4
BRK	21	288	6
TAP	22	0	0
TAP	22	0	1
TAP	22	72	0
TAP	22	72	1
TAP	22	144	4
TAP	22	144	5
STR	22	192	2
SCL	22	192	2	96	48	7
TAP	22	192	3
TAP	22	336	6
TAP	23	0	1
TAP	23	0	2
TAP	23	72	2
TAP	23	72	3
TAP	23	144	1
TAP	23	144	2
TAP	23	192	5
STR	23	192	6
SCR	23	192	6	96	48	1
TAP	23	240	4
TAP	23	288	3
TAP	23	336	2
TAP	24	0	1
TAP	24	0	2
TAP	24	72	0
TAP	24	72	7
TAP	24	144	5
TAP	24	144	6
STR	24	192	3
SI_	24	192	3	96	48	0
TAP	24	192	4
TAP	24	336	7
TAP	24	360	6
TAP	25	0	5
TAP	25	72	3
TAP	25	144	2
TAP	25	192	4
TAP	25	240	6
TAP	25	288	0
TAP	25	288	7
TAP	26	0	1
TAP	26	72	5
TAP	26	144	2
STR	26	192	6
SCR	26	192	6	96	48	1
TAP	26	288	5
TAP	26	336	6
TAP	27	0	7
TAP	27	72	0
TAP	27	144	1
TAP	27	192	2
TAP	27	240	2
TAP	27	240	3
TAP	27	288	5
TAP	27	336	4
TAP	27	336	5
TAP	28	0	7
TAP	28	72	1
TAP	28	144	5
STR	28	192	2
SCR	28	192	2	96	48	5
TAP	28	336	6
TAP	28	360	7
TAP	29	0	0
TAP	29	72	1
TAP	29	144	2
TAP	29	192	4
TAP	29	240	6
BRK	29	288	0
BRK	29	288	1
TAP	30	0	3
TAP	30	0	4
TAP	30	96	1
TAP	30	96	6
TAP	30	168	2
TAP	30	240	5
TAP	30	288	0
TAP	30	288	7
TAP	31	0	2
TAP	31	48	2
TAP	31	48	3
TAP	31	96	3
TAP	31	168	5
TAP	31	240	4
TAP	31	240	5
TAP	31	288	3
TAP	31	288	5
HLD	32	0	6	96
TAP	32	96	7
TAP	32	168	0
TAP	32	240	0
TAP	32	240	1
TAP	32	288	0
TAP	32	288	2
TAP	33	0	4
TAP	33	48	2
TAP	33	96	5
HLD	33	168	6	120
TAP	33	240	0
TAP	33	288	0
STR	34	0	0
SCL	34	0	0	96	96	5
TAP	34	168	0
TAP	34	240	7
TAP	34	288	6
TAP	35	0	3
TAP	35	48	2
TAP	35	48	4
TAP	35	96	3
TAP	35	96	5
TAP	35	168	4
TAP	35	240	2
TAP	35	240	5
TAP	35	288	0
TAP	35	288	4
HLD	36	0	1	72
TAP	36	72	2
TAP	36	144	4
HLD	36	192	6	72
TAP	36	264	5
TAP	36	336	7
HLD	37	0	3	72
TAP	37	72	2
TAP	37	144	4
HLD	37	192	7	96
TAP	37	288	6
HLD	38	0	5	72
TAP	38	72	4
TAP	38	144	4
HLD	38	192	3	72
TAP	38	264	4
TAP	38	336	2
HLD	39	0	1	72
TAP	39	72	2
TAP	39	144	0
HLD	39	192	2	96
HLD	39	192	5	96
TAP	39	336	0
TAP	39	336	7
HLD	40	0	1	72
TAP	40	72	2
TAP	40	144	0
HLD	40	192	7	72
TAP	40	264	0
TAP	40	336	6
HLD	41	0	5	72
TAP	41	72	4
TAP	41	144	3
HLD	41	192	0	96
TAP	41	192	7
TAP	41	336	2
HLD	42	0	7	72
TAP	42	72	0
TAP	42	144	7
HLD	42	192	0	72
TAP	42	264	6
TAP	42	336	1
TAP	43	0	3
TAP	43	0	4
TAP	43	96	5
TAP	43	192	3
TAP	43	288	7
HLD	44	0	5	192
TAP	44	72	7
TAP	44	144	1
TAP	44	192	3
TAP	44	288	4
TAP	45	0	4
TAP	45	0	6
TAP	45	96	1
TAP	45	96	3
TAP	45	192	5
TAP	45	192	7
BRK	45	288	0
BRK	45	288	2
TAP	46	0	0
TAP	46	48	2
TAP	46	96	4
TAP	46	144	6
BRK	46	192	0
TAP	46	204	1
TAP	46	216	2
TAP	46	228	3
TAP	46	240	4
TAP	46	252	5
TAP	46	264	6
BRK	46	276	7
TAP	47	0	0
TAP	47	0	1
TAP	47	72	6
TAP	47	72	7
TAP	47	144	1
TAP	47	144	6
TAP	47	192	0
STR	47	192	7
SCL	47	192	7	96	48	4
TAP	47	336	3
TAP	48	0	2
TAP	48	0	3
TAP	48	72	0
TAP	48	72	1
TAP	48	144	6
TAP	48	144	7
TAP	48	192	5
TAP	48	240	4
TAP	48	288	5
TAP	48	336	4
TAP	49	0	3
TAP	49	0	4
TAP	49	72	5
TAP	49	72	6
TAP	49	144	0
TAP	49	144	7
TAP	49	192	1
STR	49	192	2
SI_	49	192	2	96	48	5
TAP	49	336	7
TAP	49	360	6
TAP	50	0	5
TAP	50	72	3
TAP	50	144	2
TAP	50	192	4
TAP	50	240	6
TAP	50	288	3
TAP	50	288	4
TAP	51	0	0
TAP	51	0	1
TAP	51	72	0
TAP	51	72	1
TAP	51	144	4
TAP	51	144	5
STR	51	192	2
SCL	51	192	2	96	47	7
TAP	51	192	3
TAP	51	336	6
TAP	52	0	1
TAP	52	0	2
TAP	52	72	2
TAP	52	72	3
TAP	52	144	1
TAP	52	144	2
TAP	52	192	5
STR	52	192	6
SCR	52	192	6	96	48	1
TAP	52	240	4
TAP	52	288	3
TAP	52	336	2
TAP	53	0	1
TAP	53	0	2
TAP	53	72	0
TAP	53	72	7
TAP	53	144	5
TAP	53	144	6
STR	53	192	3
SI_	53	192	3	96	48	0
TAP	53	192	4
TAP	53	336	7
TAP	53	360	6
TAP	54	0	5
TAP	54	72	3
TAP	54	144	2
TAP	54	192	4
TAP	54	240	6
BRK	54	288	0
BRK	54	288	7

T_REC_TAP	297
T_REC_BRK	10
T_REC_XTP	0
T_REC_HLD	29
T_REC_XHO	0
T_REC_STR	31
T_REC_BST	0
T_REC_XST	0
T_REC_TTP	0
T_REC_THO	0
T_REC_SLD	31
T_REC_ALL	398
T_NUM_TAP	328
T_NUM_BRK	10
T_NUM_HLD	29
T_NUM_SLD	31
T_NUM_ALL	398
T_JUDGE_TAP	338
T_JUDGE_HLD	61
T_JUDGE_SLD	31
T_JUDGE_ALL	430
TTM_EACHPAIRS	71
TTM_SCR_TAP	164000
TTM_SCR_BRK	26000
TTM_SCR_HLD	29000
TTM_SCR_SLD	46500
TTM_SCR_ALL	265500
TTM_SCR_S	256600
TTM_SCR_SS	264500
TTM_RAT_ACV	10037

