VERSION	0.00.00	1.03.00
FES_MODE	0
BPM_DEF	136.000	136.000	136.000	136.000
MET_DEF	4	4
RESOLUTION	384
CLK_DEF	384
COMPATIBLE_CODE	MA2

BPM	0	0	136.000
MET	0	0	4	4

TAP	2	0	7
TAP	2	72	7
TAP	2	144	7
HLD	2	192	7	96
TAP	2	336	7
TAP	3	0	0
TAP	3	72	0
TAP	3	144	0
STR	3	192	0
SI_	3	192	0	96	192	3
HLD	5	0	6	288
BRK	5	288	7
HLD	6	0	1	96
TAP	6	144	1
TAP	6	192	1
TAP	6	264	0
HLD	6	336	7	144
TAP	7	144	7
TAP	7	192	0
TAP	7	240	1
TAP	7	288	0
TAP	7	336	7
TAP	8	0	6
TAP	8	72	4
HLD	8	144	2	144
STR	9	0	3
SCR	9	0	3	96	192	6
HLD	10	0	7	96
TAP	10	144	0
TAP	10	192	0
TAP	10	264	1
HLD	10	336	2	144
TAP	11	144	2
TAP	11	192	3
TAP	11	240	2
TAP	11	288	1
TAP	11	336	0
TAP	12	0	7
HLD	12	72	6	216
BRK	13	0	0
TAP	14	0	6
STR	14	0	7
SCR	14	0	7	96	192	2
STR	15	0	2
SCL	15	0	2	96	192	7
TAP	15	0	3
HLD	16	0	5	72
TAP	16	0	6
TAP	16	72	4
TAP	16	144	3
HLD	16	192	2	96
HLD	17	0	1	144
TAP	17	144	0
HLD	17	192	0	96
HLD	18	0	6	72
TAP	18	0	7
HLD	18	72	4	72
TAP	18	144	3
HLD	18	192	2	96
TAP	19	0	1
TAP	19	0	4
TAP	19	96	0
TAP	19	96	2
TAP	19	192	1
TAP	19	192	5
TAP	19	288	3
TAP	19	288	7
HLD	20	0	2	288
HLD	20	0	6	288
TAP	21	0	6
TAP	21	0	7
TAP	21	96	0
TAP	21	96	1
TAP	21	192	4
TAP	21	192	5
TAP	21	288	2
TAP	21	288	3
TAP	22	0	5
TAP	22	0	6
TAP	22	72	7
TAP	22	144	1
TAP	22	192	1
TAP	23	0	0
TAP	23	0	7
TAP	23	72	6
TAP	23	144	4
HLD	23	192	3	96
TAP	23	288	2
TAP	24	0	4
TAP	24	72	6
TAP	24	144	7
TAP	24	192	7
HLD	25	0	4	72
TAP	25	0	5
TAP	25	72	3
HLD	25	144	2	144
TAP	25	192	1
TAP	25	240	1
BRK	25	288	1
TAP	26	0	0
TAP	26	0	1
TAP	26	72	2
TAP	26	144	3
TAP	26	192	3
TAP	27	0	0
TAP	27	0	7
TAP	27	72	6
TAP	27	144	4
HLD	27	192	3	96
TAP	27	288	2
TAP	28	0	4
TAP	28	72	6
TAP	28	144	7
TAP	28	192	7
HLD	29	0	4	72
TAP	29	0	5
TAP	29	72	3
HLD	29	144	1	144
TAP	29	192	0
TAP	29	240	0
BRK	29	288	0
TAP	30	0	3
TAP	30	96	4
TAP	30	192	5
TAP	30	288	6
TAP	31	0	4
TAP	31	96	3
TAP	31	192	2
TAP	31	288	1
TAP	32	0	2
TAP	32	96	3
TAP	32	192	4
TAP	32	288	5
TAP	33	0	3
TAP	33	96	1
TAP	33	192	7
TAP	33	288	5
STR	34	0	3
SCR	34	0	3	96	192	6
STR	35	0	5
SCL	35	0	5	96	192	2
HLD	36	0	1	192
HLD	36	192	0	192
HLD	37	0	7	192
BRK	37	288	7
TAP	38	0	6
STR	38	0	7
SCR	38	0	7	96	192	2
STR	39	0	2
SCL	39	0	2	96	192	7
TAP	39	0	3
HLD	40	0	5	72
TAP	40	0	6
TAP	40	72	4
TAP	40	144	3
HLD	40	192	2	96
HLD	41	0	1	144
TAP	41	144	0
HLD	41	192	0	96
HLD	42	0	6	72
TAP	42	0	7
HLD	42	72	4	72
TAP	42	144	3
HLD	42	192	2	96
TAP	43	0	1
TAP	43	0	4
TAP	43	96	0
TAP	43	96	2
TAP	43	192	1
TAP	43	192	5
TAP	43	288	3
TAP	43	288	7
HLD	44	0	2	288
HLD	44	0	6	288
TAP	45	0	6
TAP	45	0	7
TAP	45	96	0
TAP	45	96	1
TAP	45	192	4
TAP	45	192	5
TAP	45	288	2
TAP	45	288	3
HLD	46	0	0	192
BRK	46	288	7
TAP	47	0	1
TAP	47	0	2
TAP	47	72	3
TAP	47	144	4
TAP	47	192	5
BRK	47	288	0
BRK	47	288	7
TAP	48	0	6
TAP	48	0	7
TAP	48	72	4
TAP	48	144	2
HLD	48	192	1	96
TAP	48	288	0
TAP	49	0	2
TAP	49	72	4
TAP	49	144	6
TAP	49	192	6
BRK	49	288	0
BRK	49	288	7
HLD	50	0	5	72
TAP	50	0	6
TAP	50	72	4
HLD	50	144	2	144
TAP	50	192	1
TAP	50	240	1
TAP	50	288	1
TAP	51	0	2
TAP	51	0	3
TAP	51	72	4
TAP	51	144	6
TAP	51	192	6
BRK	51	288	0
BRK	51	288	7
TAP	52	0	0
TAP	52	0	1
TAP	52	72	7
TAP	52	144	5
HLD	52	192	4	96
TAP	52	288	3
TAP	53	0	5
TAP	53	72	7
TAP	53	144	1
TAP	53	192	1
BRK	53	288	0
BRK	53	288	7
HLD	54	0	5	72
TAP	54	0	6
TAP	54	72	4
HLD	54	144	2	144
TAP	54	192	1
TAP	54	240	1
TAP	54	288	1
STR	55	0	7
SI_	55	0	7	96	192	4
STR	56	0	5
SI_	56	0	5	96	192	2
STR	57	0	3
SI_	57	0	3	96	192	0
BRK	58	0	7

T_REC_TAP	164
T_REC_BRK	15
T_REC_XTP	0
T_REC_HLD	42
T_REC_XHO	0
T_REC_STR	11
T_REC_BST	0
T_REC_XST	0
T_REC_TTP	0
T_REC_THO	0
T_REC_SLD	11
T_REC_ALL	243
T_NUM_TAP	175
T_NUM_BRK	15
T_NUM_HLD	42
T_NUM_SLD	11
T_NUM_ALL	243
T_JUDGE_TAP	190
T_JUDGE_HLD	124
T_JUDGE_SLD	11
T_JUDGE_ALL	325
TTM_EACHPAIRS	42
TTM_SCR_TAP	87500
TTM_SCR_BRK	39000
TTM_SCR_HLD	42000
TTM_SCR_SLD	16500
TTM_SCR_ALL	185000
TTM_SCR_S	178000
TTM_SCR_SS	183500
TTM_RAT_ACV	10081

