VERSION	0.00.00	1.03.00
FES_MODE	0
BPM_DEF	136.000	136.000	136.000	136.000
MET_DEF	4	4
RESOLUTION	384
CLK_DEF	384
COMPATIBLE_CODE	MA2

BPM	0	0	136.000
MET	0	0	4	4

HLD	4	0	0	288
TAP	5	0	0
TAP	5	0	7
TAP	6	0	0
TAP	6	96	1
TAP	6	192	2
TAP	7	0	7
TAP	7	96	6
TAP	7	192	5
TAP	8	0	3
TAP	8	96	4
TAP	8	192	3
TAP	9	0	1
TAP	9	96	0
HLD	9	192	7	96
TAP	10	0	2
TAP	10	96	5
TAP	10	192	0
TAP	10	192	7
TAP	11	0	1
TAP	11	96	6
TAP	11	192	3
TAP	11	192	4
TAP	12	0	3
TAP	12	96	4
TAP	12	192	2
TAP	12	192	5
TAP	13	0	1
TAP	13	0	6
TAP	13	96	3
TAP	13	192	4
BRK	13	288	0
BRK	13	288	7
HLD	14	0	1	96
TAP	14	96	2
HLD	14	192	3	96
TAP	14	288	4
TAP	15	0	0
TAP	15	0	7
HLD	16	0	5	96
TAP	16	96	6
HLD	16	192	7	96
TAP	16	288	0
TAP	17	0	3
TAP	17	0	4
TAP	17	144	5
TAP	17	192	5
HLD	18	0	2	96
TAP	18	96	1
HLD	18	192	1	96
TAP	18	288	0
TAP	19	0	0
TAP	19	0	7
TAP	19	96	0
TAP	19	96	7
TAP	19	192	1
TAP	19	192	6
TAP	19	288	1
TAP	19	288	6
HLD	20	0	3	288
HLD	20	0	4	288
TAP	21	0	3
TAP	21	96	5
TAP	21	192	1
BRK	21	288	7
TAP	22	0	6
TAP	22	96	5
TAP	22	192	6
TAP	22	288	0
TAP	22	288	7
TAP	23	0	1
TAP	23	96	2
TAP	23	192	1
TAP	23	288	0
TAP	23	288	7
TAP	24	0	1
TAP	24	96	2
TAP	24	192	3
TAP	24	288	4
TAP	24	288	5
TAP	25	0	3
TAP	25	96	2
TAP	25	192	1
TAP	25	240	1
BRK	25	288	1
HLD	26	0	2	96
TAP	26	96	3
HLD	26	192	1	96
TAP	26	288	0
HLD	27	0	7	96
TAP	27	96	6
HLD	27	192	0	96
TAP	27	288	1
HLD	28	0	2	96
TAP	28	96	3
HLD	28	192	5	96
TAP	28	288	4
TAP	29	0	3
TAP	29	96	2
TAP	29	192	0
TAP	29	192	1
TAP	29	288	0
TAP	29	288	7
HLD	30	0	6	288
HLD	31	0	5	288
HLD	32	0	4	288
HLD	33	0	3	288
STR	34	0	0
SI_	34	0	0	96	192	3
STR	35	0	7
SI_	35	0	7	96	192	4
STR	36	0	0
SCL	36	0	0	96	192	5
BRK	37	0	7
HLD	38	0	0	288
TAP	39	0	1
TAP	39	0	2
HLD	40	0	1	288
TAP	41	0	0
TAP	41	0	7
TAP	41	144	6
TAP	41	192	6
HLD	42	0	0	96
TAP	42	96	1
HLD	42	192	4	96
TAP	42	288	5
TAP	43	0	6
TAP	43	0	7
TAP	43	96	6
TAP	43	96	7
TAP	43	192	0
TAP	43	192	1
TAP	43	288	0
TAP	43	288	1
HLD	44	0	0	288
HLD	44	0	7	288
TAP	45	0	0
TAP	45	0	7
TAP	45	96	0
TAP	45	96	1
TAP	45	192	1
TAP	45	192	2
BRK	45	288	0
BRK	45	288	1
HLD	46	0	7	288
TAP	47	0	6
TAP	47	96	5
TAP	47	192	6
TAP	47	288	0
TAP	47	288	7
TAP	48	0	1
TAP	48	96	2
TAP	48	192	3
TAP	48	288	0
TAP	48	288	7
TAP	49	0	6
TAP	49	96	5
TAP	49	192	4
TAP	49	288	2
TAP	49	288	3
TAP	50	0	4
TAP	50	96	5
TAP	50	192	6
TAP	50	240	6
TAP	50	288	6
TAP	50	288	7
HLD	51	0	0	96
TAP	51	96	1
HLD	51	192	6	96
TAP	51	288	5
HLD	52	0	7	96
TAP	52	96	0
HLD	52	192	1	96
TAP	52	288	2
TAP	53	0	7
TAP	53	96	5
TAP	53	192	3
TAP	53	288	1
TAP	54	0	2
TAP	54	96	4
TAP	54	192	5
TAP	54	192	6
BRK	54	288	0
BRK	54	288	7

T_REC_TAP	138
T_REC_BRK	9
T_REC_XTP	0
T_REC_HLD	31
T_REC_XHO	0
T_REC_STR	3
T_REC_BST	0
T_REC_XST	0
T_REC_TTP	0
T_REC_THO	0
T_REC_SLD	3
T_REC_ALL	184
T_NUM_TAP	141
T_NUM_BRK	9
T_NUM_HLD	31
T_NUM_SLD	3
T_NUM_ALL	184
T_JUDGE_TAP	150
T_JUDGE_HLD	110
T_JUDGE_SLD	3
T_JUDGE_ALL	263
TTM_EACHPAIRS	35
TTM_SCR_TAP	70500
TTM_SCR_BRK	23400
TTM_SCR_HLD	31000
TTM_SCR_SLD	4500
TTM_SCR_ALL	129400
TTM_SCR_S	124650
TTM_SCR_SS	128500
TTM_RAT_ACV	10070

