VERSION	0.00.00	1.03.00
FES_MODE	0
BPM_DEF	136.000	136.000	136.000	136.000
MET_DEF	4	4
RESOLUTION	384
CLK_DEF	384
COMPATIBLE_CODE	MA2

BPM	0	0	136.000
MET	0	0	4	4

TAP	6	0	1
TAP	6	192	1
TAP	7	0	0
TAP	7	192	0
TAP	8	0	7
TAP	8	192	7
TAP	9	0	6
TAP	9	192	6
TAP	10	0	7
TAP	10	192	7
TAP	11	0	0
TAP	11	192	0
STR	12	0	1
SI_	12	0	1	96	96	5
HLD	14	0	5	192
TAP	15	0	5
HLD	16	0	2	192
TAP	17	0	2
TAP	17	192	3
TAP	18	0	2
TAP	18	192	2
TAP	19	0	1
TAP	19	192	1
HLD	20	0	0	288
TAP	21	0	7
TAP	21	96	7
TAP	21	192	6
BRK	21	288	6
TAP	22	0	7
TAP	22	192	7
TAP	23	0	0
TAP	23	192	0
TAP	23	192	7
TAP	23	288	0
TAP	23	288	7
TAP	24	0	6
TAP	24	192	7
TAP	25	0	6
TAP	25	192	6
TAP	25	192	7
TAP	25	288	6
TAP	25	288	7
TAP	26	0	1
TAP	26	192	0
TAP	27	0	1
TAP	27	192	0
TAP	27	192	1
TAP	27	288	0
TAP	27	288	1
TAP	28	0	1
TAP	28	192	0
TAP	29	0	7
TAP	29	192	6
BRK	29	288	6
STR	30	0	7
SI_	30	0	7	96	96	4
STR	31	0	4
SI_	31	0	4	96	96	1
STR	32	0	1
SI_	32	0	1	96	96	5
STR	33	0	5
SI_	33	0	5	96	96	2
STR	34	0	2
SI_	34	0	2	96	96	7
HLD	36	0	0	96
HLD	36	192	1	96
HLD	37	0	2	96
HLD	37	192	3	96
TAP	38	0	4
TAP	38	96	4
TAP	38	192	3
TAP	38	288	3
TAP	39	0	3
TAP	39	0	4
TAP	40	0	2
TAP	40	96	2
TAP	40	192	3
TAP	40	288	3
TAP	41	0	2
TAP	41	0	3
TAP	42	0	5
TAP	42	96	5
TAP	42	192	4
TAP	42	288	4
TAP	43	0	4
TAP	43	0	5
HLD	44	0	2	192
HLD	44	0	5	192
TAP	45	0	1
TAP	45	96	0
TAP	45	192	7
TAP	45	288	6
TAP	47	0	1
TAP	47	96	1
TAP	47	192	0
TAP	48	0	1
TAP	48	96	1
HLD	48	192	0	96
TAP	49	0	6
TAP	49	96	6
TAP	49	192	7
TAP	50	0	6
TAP	50	96	6
HLD	50	192	7	96
TAP	51	0	0
TAP	51	96	0
TAP	51	192	7
TAP	52	0	0
TAP	52	0	7
TAP	52	96	0
TAP	52	96	7
HLD	52	192	0	96
HLD	52	192	7	96
TAP	53	0	1
TAP	53	96	1
TAP	53	192	6
TAP	54	0	1
TAP	54	0	6
TAP	54	96	1
TAP	54	96	6
HLD	54	192	1	96
HLD	54	192	6	96
TAP	55	96	5
TAP	55	288	5
TAP	56	96	4
TAP	56	288	4
TAP	57	96	3
TAP	57	288	3
BRK	58	288	2

T_REC_TAP	99
T_REC_BRK	3
T_REC_XTP	0
T_REC_HLD	15
T_REC_XHO	0
T_REC_STR	6
T_REC_BST	0
T_REC_XST	0
T_REC_TTP	0
T_REC_THO	0
T_REC_SLD	6
T_REC_ALL	129
T_NUM_TAP	105
T_NUM_BRK	3
T_NUM_HLD	15
T_NUM_SLD	6
T_NUM_ALL	129
T_JUDGE_TAP	108
T_JUDGE_HLD	42
T_JUDGE_SLD	6
T_JUDGE_ALL	156
TTM_EACHPAIRS	16
TTM_SCR_TAP	52500
TTM_SCR_BRK	7800
TTM_SCR_HLD	15000
TTM_SCR_SLD	9000
TTM_SCR_ALL	84300
TTM_SCR_S	81500
TTM_SCR_SS	84000
TTM_RAT_ACV	10035

