VERSION	0.00.00	1.03.00
FES_MODE	0
BPM_DEF	100.000	100.000	100.000	100.000
MET_DEF	4	4
RESOLUTION	384
CLK_DEF	384
COMPATIBLE_CODE	MA2

BPM	0	0	100.000
MET	0	0	4	4

STR	1	0	5
SI_	1	0	5	96	96	1
TAP	1	144	7
STR	1	240	3
SI_	1	240	3	96	96	7
HLD	2	0	0	288
TAP	2	216	6
HLD	2	264	4	120
BRK	2	336	0
STR	3	0	2
SI_	3	0	2	96	96	7
HLD	3	144	1	144
TAP	3	240	2
TAP	3	288	3
STR	4	0	1
SCR	4	0	1	96	96	4
TAP	4	48	0
HLD	4	144	1	144
TAP	4	240	0
BRK	4	288	7
STR	5	0	6
SI_	5	0	6	96	96	3
STR	5	144	0
SI_	5	144	0	96	96	4
BRK	5	288	7
TAP	6	0	3
TAP	6	0	6
TAP	6	96	2
TAP	6	96	4
TAP	6	240	5
TAP	6	240	7
TAP	6	288	0
TAP	6	288	6
STR	7	0	1
SCR	7	0	1	96	96	4
HLD	7	192	1	192
STR	7	288	0
SCL	7	288	0	96	96	5
STR	8	96	0
SCR	8	96	0	96	96	3
STR	8	288	7
SI_	8	288	7	96	192	3
STR	9	96	0
SI_	9	96	0	96	192	4
STR	9	288	1
SI_	9	288	1	96	192	5
TAP	10	96	7
TAP	10	240	0
BRK	10	288	0
HLD	11	0	6	192
TAP	11	96	5
TAP	11	192	0
TAP	11	264	1
TAP	11	336	2
HLD	12	0	2	96
TAP	12	48	3
HLD	12	96	1	96
TAP	12	192	0
TAP	12	264	7
TAP	12	336	6
HLD	13	0	6	96
TAP	13	48	4
HLD	13	96	2	96
TAP	13	192	0
HLD	13	264	7	72
TAP	13	336	5
TAP	14	0	1
TAP	14	0	6
BRK	14	144	1
BRK	14	144	7
TAP	14	192	3
TAP	14	192	5
BRK	14	288	2
BRK	14	288	6
STR	15	0	0
SI_	15	0	0	96	192	4
STR	15	192	0
SCL	15	192	0	96	192	5
STR	16	0	7
SCR	16	0	7	96	192	2
STR	16	192	3
SI_	16	192	3	96	192	7
STR	17	0	5
SI_	17	0	5	96	192	1
TAP	17	48	5
STR	17	192	7
SI_	17	192	7	96	192	3
TAP	17	240	7
HLD	18	0	1	96
HLD	18	144	1	96
HLD	18	144	6	96
STR	18	288	2
SI_	18	288	2	96	48	7
BRK	18	288	7
HLD	19	0	0	240
TAP	19	96	6
TAP	19	168	5
STR	19	240	4
SCR	19	240	4	96	96	7
TAP	19	288	2
BRK	19	336	0
STR	20	0	0
SI_	20	0	0	96	192	4
STR	20	192	6
SI_	20	192	6	96	192	3
HLD	21	0	0	192
TAP	21	192	7
TAP	21	264	6
BRK	21	336	5
STR	22	0	4
SI_	22	0	4	96	192	0
STR	22	192	2
SI_	22	192	2	96	192	7
HLD	23	0	6	192
TAP	23	192	5
TAP	23	264	6
BRK	23	336	7
STR	24	0	0
SI_	24	0	0	96	192	4
STR	24	192	6
SI_	24	192	6	96	192	3
HLD	25	0	1	192
HLD	25	192	6	192
TAP	26	0	0
TAP	26	96	5
TAP	26	96	7
BRK	26	144	1
BRK	26	144	6
BRK	26	288	5
BRK	26	288	7
STR	27	0	0
SI_	27	0	0	96	96	5
STR	27	144	7
SI_	27	144	7	96	96	3
HLD	27	288	1	96
STR	28	0	7
SI_	28	0	7	96	96	2
STR	28	144	0
SI_	28	144	0	96	96	4
HLD	28	288	6	96
STR	29	0	5
SI_	29	0	5	96	96	0
STR	29	144	7
SI_	29	144	7	96	96	3
HLD	29	288	0	96
STR	30	0	3
SCR	30	0	3	96	96	6
TAP	30	96	1
TAP	30	144	1
TAP	30	240	7
BRK	30	288	7
STR	31	0	1
SCR	31	0	1	96	96	4
HLD	31	192	1	192
STR	31	288	0
SCL	31	288	0	96	96	5
STR	32	96	0
SCR	32	96	0	96	96	3
STR	32	288	7
SI_	32	288	7	96	192	3
STR	33	96	0
SI_	33	96	0	96	192	4
STR	33	288	1
SI_	33	288	1	96	192	5
BRK	34	96	7
TAP	34	240	0
STR	34	288	2
SI_	34	288	2	96	48	7
BRK	34	288	7
HLD	35	0	0	240
TAP	35	96	6
TAP	35	168	5
STR	35	240	4
SCR	35	240	4	96	96	7
TAP	35	288	2
BRK	35	336	0
STR	36	0	0
SI_	36	0	0	96	192	4
STR	36	192	6
SI_	36	192	6	96	192	3
HLD	37	0	0	192
TAP	37	192	7
TAP	37	264	6
BRK	37	336	5
STR	38	0	4
SI_	38	0	4	96	192	0
STR	38	192	2
SI_	38	192	2	96	192	7
HLD	39	0	6	192
TAP	39	192	5
TAP	39	264	6
BRK	39	336	7
STR	40	0	0
SI_	40	0	0	96	192	4
STR	40	192	6
SI_	40	192	6	96	192	3
HLD	41	0	1	192
HLD	41	192	6	192
TAP	42	0	0
TAP	42	96	5
TAP	42	96	7
BRK	42	144	0
BRK	42	144	7
BRK	42	288	1
BRK	42	288	6

T_REC_TAP	57
T_REC_BRK	26
T_REC_XTP	0
T_REC_HLD	28
T_REC_XHO	0
T_REC_STR	47
T_REC_BST	0
T_REC_XST	0
T_REC_TTP	0
T_REC_THO	0
T_REC_SLD	47
T_REC_ALL	205
T_NUM_TAP	104
T_NUM_BRK	26
T_NUM_HLD	28
T_NUM_SLD	47
T_NUM_ALL	205
T_JUDGE_TAP	130
T_JUDGE_HLD	180
T_JUDGE_SLD	47
T_JUDGE_ALL	357
TTM_EACHPAIRS	17
TTM_SCR_TAP	52000
TTM_SCR_BRK	67600
TTM_SCR_HLD	28000
TTM_SCR_SLD	70500
TTM_SCR_ALL	218100
TTM_SCR_S	209050
TTM_SCR_SS	215500
TTM_RAT_ACV	10120

