VERSION	0.00.00	1.03.00
FES_MODE	0
BPM_DEF	100.000	100.000	100.000	100.000
MET_DEF	4	4
RESOLUTION	384
CLK_DEF	384
COMPATIBLE_CODE	MA2

BPM	0	0	100.000
MET	0	0	4	4

TAP	2	0	6
TAP	2	96	1
TAP	2	168	7
TAP	2	216	7
BRK	2	264	0
HLD	3	0	5	672
TAP	3	96	2
TAP	3	192	1
TAP	3	288	0
HLD	4	0	7	96
HLD	4	192	6	288
HLD	5	0	7	288
HLD	5	192	0	288
TAP	6	0	1
TAP	6	96	1
TAP	6	240	7
TAP	6	288	0
HLD	7	0	2	672
TAP	7	96	5
TAP	7	192	6
TAP	7	288	7
HLD	8	0	0	96
HLD	8	192	1	288
HLD	9	0	0	288
HLD	9	192	7	288
TAP	10	0	6
TAP	10	96	6
TAP	10	240	5
TAP	10	288	5
TAP	11	0	0
TAP	11	48	0
HLD	11	96	1	192
TAP	11	192	7
TAP	11	240	7
HLD	11	288	6	192
TAP	12	0	7
TAP	12	48	0
HLD	12	96	1	192
TAP	12	192	0
TAP	12	240	7
HLD	12	288	6	192
TAP	13	0	1
TAP	13	48	2
HLD	13	96	0	192
TAP	13	192	6
TAP	13	240	5
HLD	13	288	7	96
HLD	14	0	0	384
TAP	14	96	4
TAP	14	192	4
TAP	14	288	4
TAP	14	336	4
HLD	15	0	3	192
TAP	15	48	2
TAP	15	96	2
HLD	15	192	4	192
TAP	15	240	5
TAP	15	288	5
HLD	16	0	2	96
TAP	16	48	3
HLD	16	96	3	96
TAP	16	144	4
HLD	16	192	4	96
TAP	16	240	5
TAP	16	288	5
TAP	17	0	4
HLD	17	0	5	48
HLD	17	48	4	48
TAP	17	96	5
HLD	17	192	2	48
TAP	17	192	3
HLD	17	240	3	48
TAP	17	288	2
STR	18	0	0
SI_	18	0	0	96	192	3
STR	18	0	1
SI_	18	0	1	96	192	6
HLD	19	0	7	48
TAP	19	72	7
HLD	19	96	6	48
TAP	19	168	6
HLD	19	192	5	48
TAP	19	264	5
HLD	19	288	4	48
TAP	19	360	4
HLD	20	0	2	48
TAP	20	72	2
HLD	20	96	3	48
TAP	20	168	3
HLD	20	192	4	48
TAP	20	264	4
HLD	20	288	5	48
TAP	20	360	5
HLD	21	0	0	48
TAP	21	72	0
HLD	21	96	1	48
TAP	21	168	1
HLD	21	192	2	48
TAP	21	264	2
HLD	21	288	3	48
TAP	21	360	3
HLD	22	0	5	48
TAP	22	72	5
HLD	22	96	4	48
TAP	22	168	4
HLD	22	192	3	48
TAP	22	264	3
HLD	22	288	2	48
TAP	22	360	6
HLD	23	0	6	48
TAP	23	72	7
HLD	23	96	7	48
TAP	23	168	0
HLD	23	192	0	48
TAP	23	264	1
HLD	23	288	1	48
TAP	23	360	4
HLD	24	0	4	48
TAP	24	72	5
HLD	24	96	5	48
TAP	24	168	6
HLD	24	192	6	48
TAP	24	264	7
HLD	24	288	7	48
TAP	24	360	1
HLD	25	0	1	48
TAP	25	72	0
HLD	25	96	0	48
TAP	25	168	7
HLD	25	192	7	48
TAP	25	264	6
HLD	25	288	6	48
TAP	25	360	3
HLD	26	0	3	96
TAP	26	96	4
HLD	26	144	4	96
TAP	26	240	1
STR	26	288	1
SCL	26	288	1	96	1344	6
BRK	30	240	0
BRK	30	240	7
BRK	30	288	0
BRK	30	288	7
HLD	31	0	2	192
STR	31	192	7
SCR	31	192	7	96	96	2
STR	31	288	2
SCR	31	288	2	96	96	5
HLD	33	0	5	192
STR	33	192	0
SCL	33	192	0	96	96	5
STR	33	288	5
SCL	33	288	5	96	96	2
TAP	34	240	5
TAP	34	288	5
STR	35	0	0
SI_	35	0	0	96	48	5
STR	35	48	5
SI_	35	48	5	96	48	1
STR	35	96	1
SI_	35	96	1	96	48	4
TAP	36	96	6
TAP	36	288	6
STR	37	0	6
SI_	37	0	6	96	48	2
STR	37	48	2
SCR	37	48	2	96	48	5
STR	37	96	5
SI_	37	96	5	96	48	1
TAP	38	96	7
TAP	38	288	7
STR	39	0	7
SCL	39	0	7	96	48	4
STR	39	48	4
SI_	39	48	4	96	48	0
STR	39	96	0
SCR	39	96	0	96	48	3
TAP	40	96	2
TAP	40	288	2
STR	41	0	2
SI_	41	0	2	96	48	5
STR	41	48	5
SI_	41	48	5	96	48	0
STR	41	96	0
SI_	41	96	0	96	48	3
STR	42	0	1
SI_	42	0	1	96	144	6
STR	42	144	6
SCR	42	144	6	96	144	1

T_REC_TAP	84
T_REC_BRK	5
T_REC_XTP	0
T_REC_HLD	58
T_REC_XHO	0
T_REC_STR	21
T_REC_BST	0
T_REC_XST	0
T_REC_TTP	0
T_REC_THO	0
T_REC_SLD	21
T_REC_ALL	189
T_NUM_TAP	105
T_NUM_BRK	5
T_NUM_HLD	58
T_NUM_SLD	21
T_NUM_ALL	189
T_JUDGE_TAP	110
T_JUDGE_HLD	312
T_JUDGE_SLD	21
T_JUDGE_ALL	443
TTM_EACHPAIRS	5
TTM_SCR_TAP	52500
TTM_SCR_BRK	13000
TTM_SCR_HLD	58000
TTM_SCR_SLD	31500
TTM_SCR_ALL	155000
TTM_SCR_S	149900
TTM_SCR_SS	154500
TTM_RAT_ACV	10032

