VERSION	0.00.00	1.03.00
FES_MODE	0
BPM_DEF	100.000	100.000	100.000	100.000
MET_DEF	4	4
RESOLUTION	384
CLK_DEF	384
COMPATIBLE_CODE	MA2

BPM	0	0	100.000
MET	0	0	4	4

HLD	1	0	0	96
TAP	1	96	7
HLD	1	192	7	96
TAP	1	288	0
TAP	2	0	1
TAP	2	96	3
TAP	2	168	2
TAP	2	216	2
HLD	2	264	1	72
TAP	3	0	0
TAP	3	96	7
TAP	3	144	7
TAP	3	240	6
TAP	3	288	6
TAP	4	0	0
TAP	4	48	0
TAP	4	144	1
TAP	4	240	2
TAP	4	288	2
TAP	5	0	7
TAP	5	96	6
TAP	5	144	6
TAP	5	240	5
TAP	5	288	5
HLD	6	0	6	96
HLD	6	96	0	96
TAP	6	240	2
BRK	6	288	2
TAP	7	0	0
TAP	7	96	7
TAP	7	144	7
TAP	7	240	6
TAP	7	288	6
TAP	8	0	7
TAP	8	96	1
TAP	8	144	1
TAP	8	240	3
TAP	8	288	3
TAP	9	0	1
TAP	9	96	7
TAP	9	144	7
TAP	9	240	6
TAP	9	288	6
HLD	10	0	5	288
BRK	10	288	4
TAP	11	0	7
TAP	11	48	7
HLD	11	96	0	168
TAP	11	192	1
TAP	11	264	1
TAP	12	0	7
TAP	12	48	7
HLD	12	96	6	168
TAP	12	192	5
TAP	12	264	5
TAP	13	0	3
TAP	13	48	3
HLD	13	96	2	168
TAP	13	192	1
TAP	13	264	1
BRK	14	0	0
BRK	14	0	7
TAP	14	144	6
TAP	14	192	6
TAP	14	288	0
TAP	14	288	7
TAP	15	0	0
TAP	15	96	1
TAP	15	192	2
TAP	15	288	3
TAP	16	0	4
TAP	16	96	5
TAP	16	192	6
TAP	16	288	7
HLD	17	0	0	192
HLD	17	192	1	192
HLD	18	0	0	144
TAP	18	144	7
TAP	18	240	6
BRK	18	288	6
TAP	19	0	0
TAP	19	48	1
TAP	19	96	1
TAP	19	168	0
TAP	19	240	7
TAP	19	288	6
TAP	19	288	7
TAP	20	0	7
TAP	20	48	7
TAP	20	96	0
TAP	20	168	1
TAP	20	240	2
TAP	20	288	2
TAP	20	288	3
TAP	21	0	4
TAP	21	48	5
TAP	21	96	5
TAP	21	168	6
TAP	21	240	4
TAP	21	288	2
TAP	21	288	3
TAP	22	0	4
TAP	22	48	5
TAP	22	96	5
TAP	22	168	6
TAP	22	240	7
TAP	22	288	0
TAP	22	288	1
TAP	23	0	7
TAP	23	48	6
TAP	23	96	5
TAP	23	168	7
TAP	23	240	1
TAP	23	288	2
TAP	23	288	3
TAP	24	0	0
TAP	24	48	0
TAP	24	96	7
TAP	24	168	0
TAP	24	240	2
TAP	24	288	3
TAP	24	288	4
HLD	25	0	2	96
HLD	25	192	1	96
HLD	26	0	2	96
TAP	26	96	3
HLD	26	192	4	96
TAP	26	288	5
STR	27	0	4
SCL	27	0	4	96	192	1
STR	28	0	0
SCL	28	0	0	96	192	5
STR	29	0	3
SI_	29	0	3	96	192	0
STR	29	0	4
SI_	29	0	4	96	192	7
TAP	30	0	0
TAP	30	96	0
TAP	30	144	7
TAP	30	240	7
TAP	30	288	0
TAP	30	288	7
TAP	31	0	0
TAP	31	96	1
TAP	31	144	2
TAP	31	240	2
TAP	31	288	1
TAP	32	0	0
TAP	32	96	7
TAP	32	144	6
TAP	32	240	6
TAP	32	288	7
TAP	33	0	0
TAP	33	96	1
TAP	33	144	2
TAP	33	240	1
TAP	33	288	0
HLD	34	0	1	96
HLD	34	96	3	96
HLD	34	192	5	96
HLD	34	288	7	96
HLD	35	0	0	288
TAP	35	96	1
TAP	35	144	2
TAP	35	240	2
TAP	35	288	1
HLD	36	0	0	288
TAP	36	96	7
TAP	36	144	6
TAP	36	240	6
TAP	36	288	7
HLD	37	0	2	288
TAP	37	96	3
TAP	37	144	4
TAP	37	240	4
TAP	37	288	3
TAP	38	0	0
TAP	38	96	6
TAP	38	96	7
TAP	38	240	0
TAP	38	288	0
TAP	38	288	1
STR	39	0	7
SI_	39	0	7	96	192	3
STR	40	0	0
SI_	40	0	0	96	192	4
TAP	41	0	3
TAP	41	0	4
TAP	41	96	2
TAP	41	96	5
TAP	41	192	1
TAP	41	192	6
TAP	41	288	0
TAP	41	288	7
STR	42	0	0
SCR	42	0	0	96	192	3
STR	42	0	7
SCL	42	0	7	96	192	4

T_REC_TAP	154
T_REC_BRK	5
T_REC_XTP	0
T_REC_HLD	23
T_REC_XHO	0
T_REC_STR	8
T_REC_BST	0
T_REC_XST	0
T_REC_TTP	0
T_REC_THO	0
T_REC_SLD	8
T_REC_ALL	198
T_NUM_TAP	162
T_NUM_BRK	5
T_NUM_HLD	23
T_NUM_SLD	8
T_NUM_ALL	198
T_JUDGE_TAP	167
T_JUDGE_HLD	142
T_JUDGE_SLD	8
T_JUDGE_ALL	317
TTM_EACHPAIRS	17
TTM_SCR_TAP	81000
TTM_SCR_BRK	13000
TTM_SCR_HLD	23000
TTM_SCR_SLD	12000
TTM_SCR_ALL	129000
TTM_SCR_S	124650
TTM_SCR_SS	128500
TTM_RAT_ACV	10038

