VERSION	0.00.00	1.03.00
FES_MODE	0
BPM_DEF	100.000	100.000	100.000	100.000
MET_DEF	4	4
RESOLUTION	384
CLK_DEF	384
COMPATIBLE_CODE	MA2

BPM	0	0	100.000
MET	0	0	4	4

TAP	3	0	6
TAP	3	192	6
TAP	4	0	7
TAP	4	192	7
TAP	5	0	1
TAP	5	192	1
TAP	6	240	0
BRK	6	288	0
TAP	7	0	2
TAP	7	192	2
TAP	8	0	3
TAP	8	192	3
TAP	9	0	4
TAP	9	192	4
HLD	10	0	3	288
TAP	11	96	2
TAP	11	192	2
TAP	11	288	2
TAP	12	96	0
TAP	12	192	0
TAP	12	288	0
TAP	13	96	6
TAP	13	192	6
TAP	13	288	6
TAP	14	96	6
TAP	14	96	7
TAP	14	288	0
TAP	14	288	1
TAP	15	96	2
TAP	15	192	2
TAP	15	288	2
TAP	16	96	4
TAP	16	192	4
TAP	16	288	4
TAP	17	96	6
TAP	17	192	6
TAP	17	288	6
TAP	18	96	0
TAP	18	96	7
TAP	18	288	0
TAP	18	288	1
TAP	19	96	7
TAP	19	192	7
STR	19	288	6
SI_	19	288	6	96	96	3
TAP	21	96	1
TAP	21	192	1
STR	21	288	2
SI_	21	288	2	96	96	7
TAP	23	96	7
TAP	23	192	7
STR	23	288	0
SI_	23	288	0	96	96	3
TAP	25	0	5
TAP	25	96	4
TAP	25	192	3
TAP	25	288	2
HLD	26	0	1	96
HLD	26	192	7	96
TAP	27	96	0
TAP	27	288	0
TAP	28	96	1
TAP	28	288	1
TAP	29	96	2
TAP	29	288	2
TAP	30	240	1
BRK	30	288	1
TAP	31	96	0
TAP	31	96	7
TAP	31	288	0
TAP	31	288	7
TAP	32	96	6
TAP	32	96	7
TAP	32	288	6
TAP	32	288	7
TAP	33	96	5
TAP	33	96	6
TAP	33	288	5
TAP	33	288	6
TAP	34	96	7
TAP	34	240	7
BRK	34	288	7
TAP	35	0	0
TAP	35	96	0
TAP	35	192	1
TAP	35	288	1
TAP	36	0	2
TAP	36	96	2
TAP	36	192	3
TAP	36	288	3
TAP	37	0	4
TAP	37	96	4
TAP	37	192	5
TAP	37	288	5
HLD	38	0	6	96
HLD	38	192	7	96
TAP	39	0	6
TAP	39	96	6
TAP	39	192	5
TAP	39	288	5
TAP	40	0	4
TAP	40	96	4
TAP	40	192	3
TAP	40	288	3
TAP	41	0	4
TAP	41	96	4
TAP	41	192	5
TAP	41	288	5
TAP	42	0	6
TAP	42	0	7
TAP	42	144	0
TAP	42	144	7
TAP	42	288	0
TAP	42	288	1

T_REC_TAP	100
T_REC_BRK	3
T_REC_XTP	0
T_REC_HLD	5
T_REC_XHO	0
T_REC_STR	3
T_REC_BST	0
T_REC_XST	0
T_REC_TTP	0
T_REC_THO	0
T_REC_SLD	3
T_REC_ALL	114
T_NUM_TAP	103
T_NUM_BRK	3
T_NUM_HLD	5
T_NUM_SLD	3
T_NUM_ALL	114
T_JUDGE_TAP	106
T_JUDGE_HLD	28
T_JUDGE_SLD	3
T_JUDGE_ALL	137
TTM_EACHPAIRS	13
TTM_SCR_TAP	51500
TTM_SCR_BRK	7800
TTM_SCR_HLD	5000
TTM_SCR_SLD	4500
TTM_SCR_ALL	68800
TTM_SCR_S	66450
TTM_SCR_SS	68500
TTM_RAT_ACV	10043

