VERSION	0.00.00	1.03.00
FES_MODE	0
BPM_DEF	152.000	152.000	152.000	152.000
MET_DEF	4	4
RESOLUTION	384
CLK_DEF	384
COMPATIBLE_CODE	MA2

BPM	0	0	152.000
MET	0	0	4	4
CLK	0	0
CLK	0	96
CLK	0	192
CLK	0	288

HLD	2	0	2	288
STR	2	96	3
SUR	2	96	3	96	96	0
HLD	3	0	5	288
STR	3	96	4
SUL	3	96	4	96	96	7
HLD	4	0	2	288
STR	4	96	3
SUR	4	96	3	96	96	0
TAP	5	0	1
TAP	5	48	0
TAP	5	96	2
TAP	5	144	7
TAP	5	192	3
TAP	5	240	6
TAP	5	288	4
TAP	5	336	5
TAP	6	0	3
HLD	6	0	4	288
STR	6	96	6
SUL	6	96	6	96	96	1
HLD	7	0	3	288
TAP	7	0	4
STR	7	96	1
SUR	7	96	1	96	96	6
TAP	8	0	3
HLD	8	0	4	288
STR	8	96	6
SUL	8	96	6	96	96	1
TAP	9	0	0
TAP	9	0	7
TAP	9	48	6
TAP	9	96	4
TAP	9	96	6
TAP	9	144	1
TAP	9	192	1
STR	9	192	3
SI_	9	192	3	96	48	7
TAP	10	0	3
TAP	10	0	5
TAP	10	48	5
TAP	10	96	1
TAP	10	96	5
TAP	10	144	5
TAP	10	192	5
STR	10	192	7
SCR	10	192	7	96	48	2
TAP	10	240	5
TAP	10	288	5
HLD	10	336	5	96
TAP	11	48	3
TAP	11	96	3
STR	11	96	4
SXL	11	96	4	96	96	3
TAP	11	192	0
TAP	11	240	1
TAP	11	288	2
TAP	12	0	2
TAP	12	0	4
TAP	12	48	2
TAP	12	96	2
TAP	12	96	6
TAP	12	144	2
STR	12	192	0
SCL	12	192	0	96	48	5
TAP	12	192	2
TAP	12	240	2
TAP	12	288	2
HLD	12	336	2	192
TAP	13	48	5
TAP	13	96	4
TAP	13	144	3
TAP	13	192	2
TAP	13	240	3
TAP	13	288	4
TAP	13	336	5
TAP	14	0	3
TAP	14	0	5
TAP	14	48	5
TAP	14	96	1
TAP	14	96	5
TAP	14	144	5
TAP	14	192	5
STR	14	192	7
SCR	14	192	7	96	48	2
TAP	14	240	5
TAP	14	288	5
HLD	14	336	5	96
TAP	15	48	3
STR	15	96	3
SXR	15	96	3	96	96	4
TAP	15	96	4
TAP	15	192	7
TAP	15	240	6
TAP	15	288	5
TAP	16	0	3
TAP	16	0	6
TAP	16	48	5
TAP	16	72	4
TAP	16	96	5
TAP	16	144	1
TAP	16	144	4
TAP	16	192	2
TAP	16	216	3
TAP	16	240	2
TAP	16	288	3
TAP	16	288	4
TAP	16	336	1
HLD	16	336	6	192
TAP	17	48	7
TAP	17	96	0
STR	17	144	1
SCL	17	144	1	96	48	6
TAP	17	240	2
TAP	17	288	3
TAP	17	336	4
TAP	18	0	5
TAP	18	48	5
TAP	18	96	4
TAP	18	96	6
TAP	18	144	3
TAP	18	192	2
TAP	18	240	2
TAP	18	288	1
TAP	18	288	3
HLD	18	336	4	144
TAP	19	48	6
STR	19	96	6
SCL	19	96	6	96	96	2
TAP	19	192	0
TAP	19	240	7
TAP	19	288	6
TAP	20	0	2
TAP	20	48	2
TAP	20	96	1
TAP	20	96	3
TAP	20	144	4
TAP	20	192	5
TAP	20	240	5
TAP	20	288	4
TAP	20	288	6
HLD	20	336	3	96
TAP	21	48	4
TAP	21	96	3
TAP	21	144	2
TAP	21	192	1
TAP	21	240	2
TAP	21	288	3
TAP	21	336	4
TAP	22	0	5
TAP	22	48	5
TAP	22	96	4
TAP	22	96	6
TAP	22	144	3
TAP	22	192	2
TAP	22	240	2
TAP	22	288	1
TAP	22	288	3
HLD	22	336	0	144
TAP	23	48	2
STR	23	96	2
SCR	23	96	2	96	96	6
TAP	23	192	7
TAP	23	240	0
TAP	23	288	1
TAP	24	0	1
TAP	24	0	4
TAP	24	48	2
TAP	24	72	3
TAP	24	96	2
TAP	24	144	3
TAP	24	144	4
TAP	24	192	5
TAP	24	216	4
TAP	24	240	5
TAP	24	288	3
TAP	24	288	6
STR	24	336	4
SCL	24	336	4	96	48	2
TAP	24	336	7
STR	25	48	4
SCR	25	48	4	96	48	6
STR	25	144	4
SUL	25	144	4	96	144	1
TAP	25	240	4
BST	26	0	7
SXR	26	0	7	96	192	4
STR	26	192	3
SI_	26	192	3	96	48	0
STR	27	0	1
SCL	27	0	1	96	48	6
TAP	27	0	5
STR	27	96	4
SI_	27	96	4	96	48	7
TAP	27	144	4
STR	27	288	3
SI_	27	288	3	96	48	0
TAP	27	336	3
TAP	28	48	6
TAP	28	96	5
TAP	28	144	4
STR	28	192	2
SXL	28	192	2	96	96	3
TAP	28	192	3
TAP	28	288	7
HLD	29	0	6	144
TAP	29	48	2
TAP	29	96	1
STR	29	144	0
SCR	29	144	0	96	48	2
STR	29	240	0
SCL	29	240	0	96	48	6
TAP	29	240	4
TAP	29	336	0
TAP	30	48	4
TAP	30	96	3
TAP	30	144	2
HLD	30	192	1	192
TAP	30	240	0
TAP	30	288	7
TAP	30	336	6
TAP	31	0	5
TAP	31	48	4
TAP	31	96	3
HLD	31	144	2	96
TAP	31	240	3
TAP	31	288	1
TAP	31	288	4
TAP	32	0	6
TAP	32	48	5
TAP	32	96	4
HLD	32	144	3	96
TAP	32	240	4
TAP	32	288	2
TAP	32	288	5
TAP	33	0	7
TAP	33	48	3
TAP	33	96	6
TAP	33	144	2
TAP	33	192	5
TAP	33	240	1
TAP	33	288	4
TAP	33	336	0
TAP	34	0	1
TAP	34	0	7
TAP	34	48	2
TAP	34	72	3
TAP	34	96	2
BRK	34	144	0
BRK	34	144	6
TAP	34	240	3
TAP	34	240	4
TAP	34	288	2
TAP	34	288	5
TAP	34	336	1
TAP	34	336	6
STR	35	0	0
SCR	35	0	0	96	96	4
TAP	35	0	7
STR	35	96	4
SXR	35	96	4	96	192	0
TAP	35	144	5
TAP	35	192	6
TAP	35	240	7
TAP	35	288	6
TAP	35	336	5
HLD	36	0	4	96
TAP	36	96	1
TAP	36	144	3
TAP	36	168	2
TAP	36	216	4
TAP	36	240	3
TAP	36	288	1
TAP	36	288	5
TAP	36	336	2
TAP	36	336	6
TAP	37	0	4
STR	37	0	7
SCL	37	0	7	96	96	3
STR	37	96	3
SXL	37	96	3	96	192	7
TAP	37	144	2
TAP	37	192	1
TAP	37	240	0
TAP	37	288	1
TAP	37	336	2
HLD	38	0	3	96
TAP	38	96	6
TAP	38	144	4
TAP	38	168	5
TAP	38	216	3
TAP	38	240	4
TAP	38	288	2
TAP	38	288	6
TAP	38	336	1
TAP	38	336	5
TAP	39	0	0
HLD	39	0	4	288
TAP	39	96	7
TAP	39	144	0
TAP	39	192	1
TAP	39	240	2
STR	39	288	3
SXL	39	288	3	96	96	3
SXR	39	288	3	96	96	3
TAP	39	336	3
TAP	40	144	0
TAP	40	192	7
TAP	40	240	6
TAP	40	288	5
TAP	40	336	4
TAP	41	0	1
TAP	41	0	3
TAP	41	72	4
TAP	41	72	6
BST	41	144	0
SXL	41	144	0	96	144	3
BST	41	144	3
SXL	41	144	3	96	144	6
TAP	42	96	0
TAP	42	96	1
TAP	42	144	2
TAP	42	144	7
TAP	42	192	3
TAP	42	192	6
TAP	42	240	4
TAP	42	240	5
TAP	42	288	3
TAP	42	312	4
TAP	42	336	3
BST	43	0	0
SCR	43	0	0	96	96	5
BRK	43	0	5
TAP	43	48	5
TAP	43	96	6
STR	43	144	7
SI_	43	144	7	96	48	3
STR	43	240	2
SCL	43	240	2	96	96	5
HLD	43	336	4	240
TAP	44	96	3
TAP	44	144	2
TAP	44	192	1
TAP	44	240	0
TAP	44	240	2
TAP	44	288	3
TAP	44	288	7
TAP	44	336	4
TAP	44	336	6
STR	45	0	5
SI_	45	0	5	96	48	1
TAP	45	48	6
TAP	45	96	7
STR	45	144	0
SI_	45	144	0	96	48	4
STR	45	240	7
SCL	45	240	7	96	96	0
TAP	45	336	0
TAP	46	96	4
TAP	46	144	3
TAP	46	192	2
TAP	46	240	3
TAP	46	240	4
TAP	46	288	2
TAP	46	288	5
TAP	46	336	3
TAP	46	360	4
STR	47	0	1
SI_	47	0	1	96	48	5
TAP	47	96	0
TAP	47	144	7
TAP	47	192	6
TAP	47	240	3
TAP	47	240	4
TAP	47	288	1
TAP	47	288	6
TAP	47	336	4
TAP	47	360	3
STR	48	0	6
SI_	48	0	6	96	48	2
TAP	48	96	7
TAP	48	144	0
TAP	48	192	1
TAP	48	240	3
TAP	48	240	4
TAP	48	288	1
TAP	48	288	6
TAP	48	336	3
TAP	48	360	4
STR	49	0	0
SI_	49	0	0	96	48	4
STR	49	48	4
SI_	49	48	4	96	48	0
TAP	49	96	3
TAP	49	144	7
TAP	49	240	2
TAP	49	240	5
TAP	49	288	4
TAP	49	336	3
BST	50	0	1
SCR	50	0	1	96	48	4
TAP	50	48	0
TAP	50	96	7
TAP	50	144	6
TAP	50	240	2
TAP	50	240	5
TAP	50	288	0
TAP	50	288	7
BST	51	0	1
SLR	51	0	1	96	96	7
BRK	51	0	6
STR	51	96	7
SXL	51	96	7	96	192	3
TAP	51	144	6
TAP	51	192	5
TAP	51	240	4
TAP	51	288	3
TAP	51	336	4
HLD	52	0	5	96
TAP	52	96	2
TAP	52	144	2
TAP	52	168	4
TAP	52	216	4
TAP	52	240	7
TAP	52	288	0
TAP	52	288	5
TAP	52	336	3
TAP	52	336	4
TAP	53	0	2
STR	53	0	6
SLL	53	0	6	96	96	0
STR	53	96	0
SXR	53	96	0	96	192	4
TAP	53	144	1
TAP	53	192	2
TAP	53	240	3
TAP	53	288	4
TAP	53	336	3
HLD	54	0	2	96
TAP	54	96	5
TAP	54	144	5
TAP	54	168	4
TAP	54	216	4
TAP	54	240	0
TAP	54	288	2
TAP	54	288	7
TAP	54	336	3
TAP	54	336	4
HLD	55	0	0	192
TAP	55	0	5
TAP	55	96	1
TAP	55	144	2
TAP	55	192	3
TAP	55	240	4
TAP	55	288	0
TAP	55	288	5
TAP	55	336	1
TAP	55	336	6
HLD	56	0	2	96
TAP	56	0	7
TAP	56	96	3
TAP	56	144	2
TAP	56	192	1
TAP	56	240	0
TAP	56	240	2
TAP	56	288	3
TAP	56	288	7
TAP	56	336	4
TAP	56	336	6
TAP	57	0	3
TAP	57	0	5
TAP	57	72	1
TAP	57	72	3
BST	57	144	3
SXR	57	144	3	96	96	0
BST	57	144	7
SXR	57	144	7	96	96	4
TAP	58	0	0
TAP	58	0	5
TAP	58	48	1
TAP	58	48	4
TAP	58	96	2
TAP	58	96	3
TAP	58	144	2
TAP	58	144	7
TAP	58	192	3
TAP	58	192	6
TAP	58	240	4
TAP	58	240	5
TAP	58	288	3
TAP	58	312	4
TAP	58	336	3
BRK	59	0	2
BST	59	0	7
SCL	59	0	7	96	96	2
TAP	59	48	2
TAP	59	96	1
STR	59	144	0
SI_	59	144	0	96	48	4
STR	59	240	5
SCR	59	240	5	96	96	2
HLD	59	336	3	144
TAP	60	96	4
TAP	60	144	5
HLD	60	192	6	192
TAP	60	240	7
TAP	60	288	0
TAP	60	336	1
STR	61	0	2
SI_	61	0	2	96	48	6
TAP	61	48	1
TAP	61	96	0
STR	61	144	7
SI_	61	144	7	96	48	3
TAP	61	240	0
TAP	61	288	1
STR	61	336	2
SI_	61	336	2	96	48	7
TAP	61	336	7
STR	62	48	5
SCR	62	48	5	96	96	2
BRK	62	144	0
TAP	62	288	3
TAP	62	288	4
STR	63	0	6
SI_	63	0	6	96	48	2
TAP	63	96	7
TAP	63	144	0
TAP	63	192	1
TAP	63	240	3
TAP	63	240	4
TAP	63	288	1
TAP	63	288	6
TAP	63	336	2
TAP	63	360	3
STR	64	0	1
SI_	64	0	1	96	48	5
TAP	64	96	0
TAP	64	144	7
TAP	64	192	6
TAP	64	240	3
TAP	64	240	4
TAP	64	288	1
TAP	64	288	6
TAP	64	336	5
TAP	64	360	4
STR	65	0	7
SXR	65	0	7	96	288	4
TAP	65	48	0
TAP	65	96	1
STR	65	144	2
SXR	65	144	2	96	144	4
TAP	66	96	4
TAP	66	96	6
TAP	66	144	3
TAP	66	144	4
TAP	66	192	2
TAP	66	192	5
BRK	66	288	1
BRK	66	288	6
STR	67	0	3
SV_	67	0	3	96	48	4
HLD	67	0	5	96
STR	67	192	3
SV_	67	192	3	96	48	5
HLD	67	192	6	96
STR	68	0	3
SV_	68	0	3	96	48	6
HLD	68	0	7	96
HLD	68	192	0	96
STR	68	192	3
SI_	68	192	3	96	48	7
HLD	69	0	1	96
STR	69	0	3
SV_	69	0	3	96	48	0
HLD	69	192	2	96
STR	69	192	3
SV_	69	192	3	96	48	1
STR	70	0	3
SV_	70	0	3	96	48	2
HLD	70	0	4	96
STR	70	192	3
SI_	70	192	3	96	48	7
HLD	70	192	5	96
TAP	71	0	6
TAP	71	48	5
TAP	71	96	4
HLD	71	144	2	144
TAP	71	144	3
TAP	71	240	1
TAP	71	288	1
TAP	72	0	5
TAP	72	48	4
TAP	72	96	3
HLD	72	144	1	144
STR	72	144	2
SSL	72	144	2	96	96	6
TAP	73	0	4
TAP	73	48	3
TAP	73	96	2
HLD	73	144	0	96
TAP	73	144	1
TAP	73	240	2
TAP	73	288	3
TAP	73	336	4
TAP	74	0	2
TAP	74	0	5
TAP	74	48	4
TAP	74	96	3
BRK	74	144	1
BRK	74	144	7
TAP	74	240	3
TAP	74	240	4
TAP	74	288	1
TAP	74	288	6
STR	75	0	4
SI_	75	0	4	96	48	7
STR	75	96	2
SUL	75	96	2	96	96	0
TAP	75	192	7
TAP	75	240	6
TAP	75	288	5
STR	76	0	4
SI_	76	0	4	96	48	7
STR	76	96	2
SUL	76	96	2	96	96	0
TAP	76	192	6
TAP	76	240	5
TAP	76	288	4
STR	77	0	4
SI_	77	0	4	96	48	7
STR	77	96	2
SUL	77	96	2	96	96	0
TAP	77	192	5
TAP	77	240	4
TAP	77	288	3
HLD	78	0	1	192
TAP	78	48	2
TAP	78	96	3
TAP	78	144	4
STR	78	192	5
SI_	78	192	5	96	48	0
HLD	78	240	5	144
STR	79	0	3
SI_	79	0	3	96	48	0
STR	79	96	5
SUR	79	96	5	96	96	7
TAP	79	192	0
TAP	79	240	1
TAP	79	288	2
STR	80	0	3
SI_	80	0	3	96	48	0
STR	80	96	5
SUR	80	96	5	96	96	7
TAP	80	192	1
TAP	80	240	2
TAP	80	288	3
STR	81	0	3
SI_	81	0	3	96	48	0
STR	81	96	5
SUR	81	96	5	96	96	7
TAP	81	192	2
TAP	81	240	3
TAP	81	288	4
HLD	82	0	6	192
TAP	82	48	5
TAP	82	96	4
TAP	82	144	3
TAP	82	192	2
TAP	82	240	1
TAP	82	240	7
BST	82	336	0
SCR	82	336	0	96	720	7
HLD	82	336	4	816

T_REC_TAP	453
T_REC_BRK	10
T_REC_XTP	0
T_REC_HLD	42
T_REC_XHO	0
T_REC_STR	74
T_REC_BST	10
T_REC_XST	0
T_REC_TTP	0
T_REC_THO	0
T_REC_SLD	85
T_REC_ALL	674
T_NUM_TAP	527
T_NUM_BRK	20
T_NUM_HLD	42
T_NUM_SLD	85
T_NUM_ALL	674
T_JUDGE_TAP	547
T_JUDGE_HLD	151
T_JUDGE_SLD	85
T_JUDGE_ALL	783
TTM_EACHPAIRS	118
TTM_SCR_TAP	263500
TTM_SCR_BRK	52000
TTM_SCR_HLD	42000
TTM_SCR_SLD	127500
TTM_SCR_ALL	485000
TTM_SCR_S	468550
TTM_SCR_SS	483000
TTM_RAT_ACV	10041

