VERSION	0.00.00	1.03.00
FES_MODE	0
BPM_DEF	152.000	152.000	152.000	152.000
MET_DEF	4	4
RESOLUTION	384
CLK_DEF	384
COMPATIBLE_CODE	MA2

BPM	0	0	152.000
MET	0	0	4	4

HLD	2	0	1	96
HLD	2	96	2	192
STR	2	192	0
SCL	2	192	0	96	24	5
HLD	3	0	6	96
HLD	3	96	5	192
STR	3	192	7
SCR	3	192	7	96	24	2
HLD	4	0	3	96
HLD	4	96	4	192
STR	4	192	5
SCR	4	192	5	96	24	0
TAP	5	0	1
TAP	5	48	0
TAP	5	96	7
TAP	5	144	6
TAP	5	192	7
TAP	5	240	0
TAP	5	288	1
TAP	5	336	2
TAP	5	336	3
HLD	6	0	5	96
HLD	6	96	4	192
STR	6	192	2
SCL	6	192	2	96	24	7
HLD	7	0	7	96
HLD	7	96	6	192
STR	7	192	1
SCR	7	192	1	96	24	4
HLD	8	0	4	96
HLD	8	96	3	192
STR	8	192	1
SCL	8	192	1	96	24	6
TAP	9	0	2
TAP	9	48	3
TAP	9	96	4
TAP	9	144	5
TAP	9	192	4
TAP	9	240	3
TAP	9	288	2
BRK	9	336	1
BRK	9	336	2
HLD	10	0	1	96
TAP	10	48	2
HLD	10	96	6	48
TAP	10	144	5
TAP	10	192	1
TAP	10	192	3
TAP	10	264	1
TAP	10	264	4
TAP	10	336	1
TAP	10	336	5
TAP	11	48	0
TAP	11	96	0
HLD	11	192	1	96
STR	11	192	7
SCR	11	192	7	96	96	2
TAP	11	240	7
STR	12	0	1
SI_	12	0	1	96	24	4
STR	12	48	7
SI_	12	48	7	96	24	3
TAP	12	192	4
TAP	12	192	7
TAP	12	288	0
TAP	12	288	5
TAP	12	336	1
TAP	12	336	4
TAP	13	48	4
HLD	13	96	4	192
STR	13	192	5
SCR	13	192	5	96	96	0
TAP	13	240	5
TAP	14	0	1
TAP	14	48	1
TAP	14	96	2
TAP	14	144	2
TAP	14	192	2
TAP	14	264	3
TAP	14	264	7
TAP	14	336	1
TAP	14	336	5
TAP	15	48	0
TAP	15	48	4
HLD	15	96	0	192
TAP	15	192	7
TAP	15	240	7
TAP	15	288	6
HLD	16	0	0	72
HLD	16	0	5	672
TAP	16	96	7
HLD	16	144	7	96
TAP	16	288	6
HLD	16	336	6	336
STR	18	0	0
SCL	18	0	0	96	96	5
TAP	18	0	2
TAP	18	48	2
TAP	18	96	1
TAP	18	144	0
TAP	18	192	7
TAP	18	264	6
STR	18	336	5
SI_	18	336	5	96	144	0
TAP	19	48	4
HLD	19	96	3	192
TAP	20	0	2
TAP	20	48	1
TAP	20	96	0
TAP	20	96	4
TAP	20	144	3
TAP	20	144	7
TAP	20	192	2
TAP	20	192	6
STR	20	264	2
SCL	20	264	2	96	216	7
TAP	20	336	2
TAP	21	48	3
HLD	21	96	4	192
TAP	22	0	4
TAP	22	48	5
TAP	22	96	4
TAP	22	96	5
TAP	22	144	3
TAP	22	144	4
TAP	22	192	2
TAP	22	192	3
STR	22	264	1
SCL	22	264	1	96	216	6
TAP	22	336	2
TAP	23	48	1
HLD	23	96	1	192
HLD	24	0	2	672
HLD	24	0	7	72
TAP	24	96	0
HLD	24	144	0	96
TAP	24	288	1
HLD	24	336	1	336
STR	26	0	6
SCL	26	0	6	96	240	3
STR	26	0	7
SCR	26	0	7	96	240	2
HLD	27	0	1	144
TAP	27	96	0
HLD	27	144	2	192
TAP	27	288	3
TAP	27	336	1
TAP	28	48	5
TAP	28	96	6
TAP	28	144	7
TAP	28	192	0
TAP	28	240	7
TAP	28	288	6
TAP	28	336	5
HLD	29	0	2	144
TAP	29	96	3
HLD	29	144	1	192
TAP	29	288	2
TAP	29	336	0
TAP	30	48	2
TAP	30	96	1
TAP	30	144	0
TAP	30	192	7
TAP	30	240	0
TAP	30	288	1
TAP	30	336	0
TAP	30	336	1
STR	31	0	1
SI_	31	0	1	96	48	5
TAP	31	48	0
TAP	31	96	7
TAP	31	144	6
STR	31	192	0
SCL	31	192	0	96	48	5
TAP	31	240	4
TAP	31	288	3
TAP	31	336	2
STR	32	0	7
SI_	32	0	7	96	48	4
TAP	32	48	2
TAP	32	96	1
TAP	32	144	0
TAP	32	192	6
TAP	32	240	4
TAP	32	288	2
HLD	32	336	0	576
TAP	33	48	1
TAP	33	96	2
TAP	33	144	3
TAP	33	192	4
TAP	33	240	5
TAP	33	288	6
TAP	33	336	7
TAP	34	0	1
TAP	34	96	6
TAP	34	144	7
BRK	34	240	0
BRK	34	240	7
STR	35	0	0
SCL	35	0	0	96	48	5
TAP	35	0	3
TAP	35	96	4
STR	35	192	2
SCL	35	192	2	96	48	7
TAP	35	192	3
TAP	35	288	4
STR	36	0	0
SCL	36	0	0	96	48	5
STR	36	96	1
SI_	36	96	1	96	48	5
STR	36	192	2
SI_	36	192	2	96	48	5
TAP	37	0	4
STR	37	0	6
SCR	37	0	6	96	48	1
TAP	37	96	3
STR	37	192	2
SCL	37	192	2	96	48	7
TAP	37	192	4
TAP	37	288	3
STR	38	0	1
SCR	38	0	1	96	48	4
STR	38	96	0
SI_	38	96	0	96	48	4
STR	38	192	7
SI_	38	192	7	96	48	4
STR	39	0	0
SI_	39	0	0	96	48	4
STR	39	96	6
SI_	39	96	6	96	48	2
STR	39	192	0
SI_	39	192	0	96	48	5
STR	40	0	3
SCL	40	0	3	96	48	0
STR	40	0	6
SCL	40	0	6	96	48	3
TAP	40	192	2
TAP	40	192	7
STR	40	288	0
SI_	40	288	0	96	24	4
STR	41	0	0
SCL	41	0	0	96	24	5
STR	41	96	0
SCR	41	96	0	96	24	3
TAP	42	0	4
STR	42	0	7
SCR	42	0	7	96	48	2
TAP	42	96	3
TAP	42	192	4
STR	42	192	5
SCR	42	192	5	96	48	0
TAP	42	288	3
STR	43	0	7
SCR	43	0	7	96	48	2
STR	43	96	6
SI_	43	96	6	96	48	2
STR	43	192	5
SI_	43	192	5	96	48	2
STR	44	0	6
SCL	44	0	6	96	48	3
TAP	44	0	7
TAP	44	96	0
STR	44	192	1
SCR	44	192	1	96	48	4
TAP	44	192	7
TAP	44	288	0
STR	45	0	7
SI_	45	0	7	96	48	3
STR	45	96	7
SCR	45	96	7	96	48	2
STR	45	192	7
SCL	45	192	7	96	48	4
TAP	46	96	1
TAP	46	144	0
STR	46	192	7
SCR	46	192	7	96	96	2
TAP	46	240	6
TAP	46	288	5
TAP	46	336	4
TAP	47	0	3
TAP	47	96	7
TAP	47	144	0
STR	47	192	1
SCL	47	192	1	96	48	6
TAP	47	240	2
TAP	47	288	3
TAP	47	336	4
TAP	48	0	5
TAP	48	96	7
TAP	48	144	0
STR	48	192	6
SCR	48	192	6	96	48	1
TAP	48	240	1
TAP	48	288	5
TAP	48	336	2
HLD	49	0	4	288
HLD	50	0	6	144
HLD	50	144	0	144
TAP	50	288	7
STR	51	0	1
SI_	51	0	1	96	96	5
TAP	51	96	6
TAP	51	144	7
TAP	51	192	0
TAP	51	240	1
TAP	51	288	2
TAP	51	336	3
STR	52	0	0
SCL	52	0	0	96	48	5
STR	52	96	1
SI_	52	96	1	96	48	5
STR	52	192	2
SI_	52	192	2	96	48	5
STR	53	0	7
SI_	53	0	7	96	96	3
TAP	53	96	1
TAP	53	144	0
TAP	53	192	7
TAP	53	240	6
TAP	53	288	5
TAP	53	336	4
STR	54	0	1
SCR	54	0	1	96	48	4
STR	54	96	0
SI_	54	96	0	96	48	4
STR	54	192	7
SI_	54	192	7	96	48	4
TAP	55	96	5
TAP	55	144	6
TAP	55	192	7
TAP	55	240	1
TAP	55	288	2
TAP	55	336	3
TAP	56	0	3
TAP	56	0	7
TAP	56	144	2
TAP	56	192	1
TAP	56	240	0
TAP	56	288	6
TAP	56	336	5
TAP	57	0	0
TAP	57	0	4
TAP	57	72	3
TAP	57	72	7
STR	57	144	2
SCR	57	144	2	96	96	5
STR	57	144	6
SCR	57	144	6	96	96	1
STR	58	0	7
SCR	58	0	7	96	96	2
TAP	58	96	5
TAP	58	144	6
TAP	58	192	7
TAP	58	240	0
TAP	58	288	1
TAP	58	336	2
HLD	59	0	3	288
STR	59	0	4
SI_	59	0	4	96	48	7
STR	59	192	7
SI_	59	192	7	96	48	4
STR	60	0	1
SI_	60	0	1	96	96	5
TAP	60	96	6
TAP	60	144	7
TAP	60	192	0
TAP	60	240	1
TAP	60	288	2
TAP	60	336	3
HLD	61	0	4	288
TAP	61	96	7
TAP	61	192	0
TAP	61	288	0
TAP	61	336	5
TAP	61	336	6
TAP	62	48	1
TAP	62	48	2
BRK	62	144	0
BRK	62	144	6
TAP	62	288	0
TAP	62	288	7
TAP	63	96	1
TAP	63	144	0
TAP	63	192	1
TAP	63	240	0
TAP	63	288	1
TAP	63	336	2
TAP	64	0	2
TAP	64	0	3
TAP	64	96	7
TAP	64	144	6
TAP	64	192	7
TAP	64	240	6
TAP	64	288	0
TAP	64	288	5
TAP	64	336	1
TAP	64	336	4
STR	65	0	2
SCL	65	0	2	96	288	7
STR	65	0	3
SCR	65	0	3	96	288	6
HLD	67	0	2	288
STR	67	0	7
SI_	67	0	7	96	192	4
HLD	68	0	3	288
STR	68	0	5
SI_	68	0	5	96	192	2
TAP	69	0	0
HLD	69	0	4	672
TAP	69	192	1
TAP	70	0	2
TAP	70	192	3
TAP	71	0	7
STR	71	96	7
SCR	71	96	7	96	96	2
HLD	71	144	7	144
TAP	72	0	1
STR	72	96	1
SCL	72	96	1	96	96	6
HLD	72	144	1	144
TAP	73	0	5
STR	73	96	5
SCL	73	96	5	96	96	2
HLD	73	144	5	144
BRK	74	0	1
BRK	74	48	0
BRK	74	96	7
BRK	74	144	6
HLD	75	0	1	96
HLD	75	96	2	192
STR	75	192	0
SCL	75	192	0	96	24	5
HLD	76	0	6	96
HLD	76	96	5	192
STR	76	192	7
SCR	76	192	7	96	24	2
HLD	77	0	3	96
HLD	77	96	4	192
STR	77	192	5
SCR	77	192	5	96	24	0
TAP	78	0	1
TAP	78	48	0
TAP	78	96	7
TAP	78	144	6
TAP	78	192	7
TAP	78	240	0
TAP	78	288	1
TAP	78	336	2
TAP	78	336	3
HLD	79	0	5	96
HLD	79	96	4	192
STR	79	192	2
SCL	79	192	2	96	24	7
HLD	80	0	7	96
HLD	80	96	6	192
STR	80	192	1
SCR	80	192	1	96	24	4
HLD	81	0	4	96
HLD	81	96	3	192
STR	81	192	1
SCL	81	192	1	96	24	6
TAP	82	0	2
TAP	82	48	3
TAP	82	96	4
TAP	82	144	5
TAP	82	192	4
TAP	82	240	3
HLD	82	336	0	720
HLD	82	336	7	720

T_REC_TAP	247
T_REC_BRK	10
T_REC_XTP	0
T_REC_HLD	58
T_REC_XHO	0
T_REC_STR	77
T_REC_BST	0
T_REC_XST	0
T_REC_TTP	0
T_REC_THO	0
T_REC_SLD	77
T_REC_ALL	469
T_NUM_TAP	324
T_NUM_BRK	10
T_NUM_HLD	58
T_NUM_SLD	77
T_NUM_ALL	469
T_JUDGE_TAP	334
T_JUDGE_HLD	262
T_JUDGE_SLD	77
T_JUDGE_ALL	673
TTM_EACHPAIRS	52
TTM_SCR_TAP	162000
TTM_SCR_BRK	26000
TTM_SCR_HLD	58000
TTM_SCR_SLD	115500
TTM_SCR_ALL	361500
TTM_SCR_S	349700
TTM_SCR_SS	360500
TTM_RAT_ACV	10027

