VERSION	0.00.00	1.03.00
FES_MODE	0
BPM_DEF	152.000	152.000	152.000	152.000
MET_DEF	4	4
RESOLUTION	384
CLK_DEF	384
COMPATIBLE_CODE	MA2

BPM	0	0	152.000
MET	0	0	4	4

HLD	2	0	7	384
HLD	3	0	0	384
HLD	4	0	1	384
HLD	5	0	2	384
TAP	6	0	1
TAP	6	96	1
TAP	6	192	7
TAP	6	288	7
TAP	7	0	0
TAP	7	96	0
TAP	7	192	6
TAP	7	288	6
TAP	8	0	2
TAP	8	96	2
TAP	8	192	4
STR	8	288	4
SCL	8	288	4	96	96	1
TAP	10	0	0
TAP	10	48	1
TAP	10	96	2
TAP	10	144	3
HLD	10	192	1	96
TAP	10	288	0
HLD	10	336	7	96
TAP	11	48	6
HLD	11	96	6	192
TAP	12	0	5
TAP	12	48	5
TAP	12	96	4
TAP	12	144	4
TAP	12	192	3
TAP	12	288	6
HLD	12	336	6	96
TAP	13	48	0
HLD	13	96	0	192
TAP	14	0	1
TAP	14	48	2
TAP	14	96	3
TAP	14	144	4
HLD	14	192	5	96
TAP	14	288	4
TAP	14	336	4
TAP	15	48	3
HLD	15	96	3	192
HLD	16	0	7	96
TAP	16	96	6
HLD	16	144	6	144
TAP	16	288	5
HLD	16	336	5	336
TAP	18	0	6
TAP	18	48	7
TAP	18	96	0
TAP	18	144	1
HLD	18	192	2	96
TAP	18	288	0
HLD	18	336	7	96
TAP	19	48	6
HLD	19	96	6	192
TAP	20	0	7
TAP	20	48	7
TAP	20	96	0
TAP	20	144	0
HLD	20	192	1	96
TAP	20	288	7
HLD	20	336	7	96
TAP	21	48	6
HLD	21	96	6	192
TAP	22	0	0
TAP	22	48	1
TAP	22	96	2
TAP	22	144	3
HLD	22	192	4	96
TAP	22	288	3
TAP	22	336	3
TAP	23	48	2
HLD	23	96	2	192
HLD	24	0	5	96
TAP	24	96	1
HLD	24	144	1	144
TAP	24	288	7
STR	24	336	7
SI_	24	336	7	96	192	4
BRK	26	0	0
HLD	27	0	0	96
TAP	27	96	1
HLD	27	144	0	144
HLD	27	144	2	144
HLD	28	0	6	96
TAP	28	96	5
HLD	28	144	4	144
HLD	28	144	6	144
HLD	29	0	1	96
TAP	29	96	2
HLD	29	144	1	144
HLD	29	144	3	144
HLD	30	0	5	96
TAP	30	96	4
HLD	30	144	3	144
HLD	30	144	5	144
HLD	31	0	4	96
TAP	31	96	0
HLD	31	144	0	96
TAP	31	240	7
HLD	32	0	1	96
TAP	32	96	2
HLD	32	144	2	96
TAP	32	240	1
TAP	32	288	0
HLD	32	336	7	336
STR	33	288	6
SI_	33	288	6	96	48	1
STR	34	48	0
SI_	34	48	0	96	48	3
TAP	34	96	0
HLD	35	0	7	96
TAP	35	96	6
TAP	35	144	5
TAP	35	192	6
TAP	35	240	7
TAP	35	288	0
TAP	35	336	1
HLD	36	0	2	288
STR	36	0	3
SI_	36	0	3	96	48	7
STR	36	192	7
SCL	36	192	7	96	48	4
HLD	37	0	1	96
TAP	37	96	0
TAP	37	144	7
TAP	37	192	0
TAP	37	240	1
TAP	37	288	2
TAP	37	336	3
STR	38	0	4
SI_	38	0	4	96	48	0
HLD	38	0	5	288
STR	38	192	0
SCR	38	192	0	96	48	3
HLD	39	0	6	96
TAP	39	96	7
TAP	39	144	7
TAP	39	192	0
TAP	39	240	0
TAP	39	288	7
TAP	39	336	6
HLD	40	0	5	144
TAP	40	144	7
TAP	40	192	7
TAP	40	240	0
TAP	40	288	1
TAP	40	336	2
TAP	41	0	0
TAP	41	0	1
TAP	41	72	6
TAP	41	72	7
HLD	41	144	0	240
HLD	41	144	7	240
TAP	42	96	0
TAP	42	144	1
TAP	42	192	2
TAP	42	240	1
TAP	42	288	0
TAP	42	336	7
STR	43	0	5
SI_	43	0	5	96	48	0
HLD	43	0	6	288
STR	43	192	0
SI_	43	192	0	96	48	4
STR	44	0	2
SI_	44	0	2	96	48	7
TAP	44	96	0
TAP	44	144	0
TAP	44	192	1
TAP	44	240	2
TAP	44	288	3
TAP	44	336	4
HLD	45	0	5	144
HLD	45	144	6	240
TAP	46	96	7
TAP	46	144	7
TAP	46	192	0
TAP	46	240	1
TAP	46	288	0
TAP	46	336	7
HLD	47	0	6	96
TAP	47	96	0
TAP	47	144	1
TAP	47	192	2
TAP	47	240	3
TAP	47	288	4
TAP	47	336	5
HLD	48	0	6	96
TAP	48	96	5
TAP	48	144	5
TAP	48	192	3
TAP	48	240	3
TAP	48	288	7
TAP	48	336	7
HLD	49	0	0	288
STR	50	0	2
SI_	50	0	2	96	48	7
STR	50	144	4
SI_	50	144	4	96	48	0
HLD	50	288	1	96
HLD	51	0	0	96
TAP	51	96	1
TAP	51	144	2
TAP	51	192	3
TAP	51	240	4
TAP	51	288	3
TAP	51	336	1
STR	52	0	6
SI_	52	0	6	96	48	1
HLD	52	0	7	96
STR	52	192	7
SI_	52	192	7	96	48	4
HLD	53	0	0	96
TAP	53	96	1
TAP	53	144	2
TAP	53	192	1
TAP	53	240	0
TAP	53	288	1
TAP	53	336	3
HLD	54	0	5	96
STR	54	0	6
SI_	54	0	6	96	48	3
STR	54	192	5
SI_	54	192	5	96	48	0
HLD	55	0	3	96
TAP	55	96	2
TAP	55	144	1
TAP	55	192	2
TAP	55	240	3
TAP	55	288	4
TAP	55	336	5
HLD	56	0	6	144
TAP	56	144	0
TAP	56	192	0
TAP	56	240	7
TAP	56	288	6
TAP	56	336	5
TAP	57	0	6
TAP	57	0	7
TAP	57	72	0
TAP	57	72	1
STR	57	144	2
SI_	57	144	2	96	96	7
STR	57	144	3
SI_	57	144	3	96	96	6
TAP	58	96	7
TAP	58	144	6
TAP	58	192	5
TAP	58	240	6
TAP	58	288	7
TAP	58	336	0
HLD	59	0	1	288
STR	59	0	2
SI_	59	0	2	96	48	7
STR	59	192	7
SI_	59	192	7	96	48	3
STR	60	0	5
SI_	60	0	5	96	48	0
TAP	60	96	7
TAP	60	144	7
TAP	60	192	6
TAP	60	240	5
TAP	60	288	4
TAP	60	336	3
HLD	61	0	2	144
HLD	61	144	1	144
TAP	61	336	2
TAP	61	336	3
TAP	62	48	4
TAP	62	48	5
HLD	62	144	6	144
HLD	62	144	7	144
BRK	63	0	0
TAP	63	96	7
TAP	63	144	6
TAP	63	192	5
TAP	63	240	4
TAP	63	288	3
TAP	63	336	2
BRK	64	0	1
TAP	64	96	2
TAP	64	144	2
TAP	64	192	4
TAP	64	240	4
TAP	64	288	0
TAP	64	336	0
HLD	65	0	7	480
TAP	66	192	0
TAP	66	288	1
TAP	67	0	2
TAP	67	96	0
HLD	67	144	0	96
TAP	67	240	7
HLD	67	336	6	336
HLD	68	383	0	97
TAP	69	96	1
HLD	69	144	2	96
HLD	69	240	4	96
HLD	69	336	6	336
TAP	71	0	5
TAP	71	96	5
HLD	71	144	4	144
TAP	72	0	5
TAP	72	96	5
HLD	72	144	6	144
TAP	73	0	0
TAP	73	96	0
HLD	73	144	1	144
STR	73	288	2
SI_	73	288	2	96	48	7
BRK	74	0	0
TAP	75	0	1
TAP	75	96	1
TAP	75	192	7
TAP	75	288	7
TAP	76	0	0
TAP	76	96	0
TAP	76	192	6
TAP	76	288	6
TAP	77	0	2
TAP	77	96	2
TAP	77	192	4
STR	77	288	4
SCL	77	288	4	96	96	1
STR	78	96	0
SCL	78	96	0	96	96	5
TAP	79	0	1
TAP	79	48	2
TAP	79	96	1
TAP	79	192	7
TAP	79	240	6
TAP	79	288	7
TAP	80	0	0
TAP	80	48	1
TAP	80	96	0
TAP	80	192	6
TAP	80	240	5
TAP	80	288	6
TAP	81	0	2
TAP	81	48	3
TAP	81	96	2
TAP	81	192	4
TAP	81	240	3
TAP	81	288	4
TAP	82	0	5
TAP	82	48	4
TAP	82	96	3
TAP	82	144	2
TAP	82	192	1
TAP	82	240	0
STR	82	336	1
SI_	82	336	1	96	96	4
STR	82	336	7
SI_	82	336	7	96	96	3

T_REC_TAP	223
T_REC_BRK	4
T_REC_XTP	0
T_REC_HLD	77
T_REC_XHO	0
T_REC_STR	27
T_REC_BST	0
T_REC_XST	0
T_REC_TTP	0
T_REC_THO	0
T_REC_SLD	27
T_REC_ALL	358
T_NUM_TAP	250
T_NUM_BRK	4
T_NUM_HLD	77
T_NUM_SLD	27
T_NUM_ALL	358
T_JUDGE_TAP	254
T_JUDGE_HLD	268
T_JUDGE_SLD	27
T_JUDGE_ALL	549
TTM_EACHPAIRS	20
TTM_SCR_TAP	125000
TTM_SCR_BRK	10400
TTM_SCR_HLD	77000
TTM_SCR_SLD	40500
TTM_SCR_ALL	252900
TTM_SCR_S	244950
TTM_SCR_SS	252500
TTM_RAT_ACV	10015

