VERSION	0.00.00	1.03.00
FES_MODE	0
BPM_DEF	152.000	152.000	152.000	152.000
MET_DEF	4	4
RESOLUTION	384
CLK_DEF	384
COMPATIBLE_CODE	MA2

BPM	0	0	152.000
MET	0	0	4	4

TAP	2	0	0
TAP	2	96	7
HLD	2	192	6	96
TAP	3	0	7
TAP	3	96	0
HLD	3	192	1	96
TAP	4	0	0
TAP	4	96	7
HLD	4	192	6	96
HLD	5	0	1	96
HLD	5	192	6	96
TAP	6	0	3
TAP	6	96	4
HLD	6	192	5	96
TAP	7	0	4
TAP	7	96	3
HLD	7	192	2	96
TAP	8	0	3
TAP	8	96	4
HLD	8	192	5	96
HLD	9	0	2	96
HLD	9	192	5	96
TAP	10	0	7
TAP	10	96	7
HLD	10	192	6	96
TAP	10	288	5
TAP	11	0	5
HLD	11	95	4	193
TAP	12	0	0
TAP	12	96	0
HLD	12	192	1	96
TAP	12	288	2
TAP	13	0	2
HLD	13	96	3	192
TAP	14	0	7
TAP	14	96	7
HLD	14	192	6	96
TAP	14	288	5
TAP	15	0	5
HLD	15	96	4	288
HLD	16	0	3	96
TAP	16	96	2
HLD	16	144	2	144
TAP	16	288	1
HLD	16	336	1	336
TAP	18	0	4
TAP	18	96	4
HLD	18	192	5	96
TAP	18	288	6
TAP	19	0	6
HLD	19	96	7	192
TAP	20	0	3
TAP	20	96	3
HLD	20	192	2	96
TAP	20	288	1
TAP	21	0	1
HLD	21	96	0	192
TAP	22	0	4
TAP	22	96	4
HLD	22	192	5	96
TAP	22	288	6
TAP	23	0	6
HLD	23	96	7	288
HLD	24	0	0	96
TAP	24	96	1
HLD	24	145	1	143
TAP	24	288	2
HLD	24	336	2	336
BRK	26	0	0
HLD	27	0	5	144
TAP	27	192	5
HLD	28	0	2	144
TAP	28	192	2
HLD	29	0	5	144
HLD	29	0	6	144
TAP	29	192	5
TAP	29	192	6
HLD	30	0	1	144
HLD	30	0	2	144
TAP	30	192	1
TAP	30	192	2
TAP	31	0	4
TAP	31	96	4
TAP	31	96	5
TAP	31	192	4
TAP	31	288	4
TAP	31	288	5
TAP	32	0	3
TAP	32	96	2
TAP	32	96	3
TAP	32	192	3
TAP	32	288	2
TAP	32	288	3
STR	33	0	1
SCL	33	0	1	96	96	6
STR	34	0	6
SCR	34	0	6	96	96	1
HLD	35	0	5	96
TAP	35	96	6
TAP	35	192	7
TAP	35	288	0
HLD	36	0	2	96
TAP	36	96	1
TAP	36	192	0
TAP	36	288	7
HLD	37	0	0	96
TAP	37	96	7
TAP	37	192	6
TAP	37	288	5
HLD	38	0	7	96
TAP	38	96	0
TAP	38	192	1
TAP	38	288	2
HLD	39	0	4	96
TAP	39	96	5
TAP	39	192	6
TAP	39	288	7
HLD	40	0	0	96
TAP	40	96	1
TAP	40	192	2
TAP	40	288	3
STR	41	0	4
SI_	41	0	4	96	96	0
HLD	42	0	5	96
TAP	42	96	6
TAP	42	192	7
TAP	42	288	0
TAP	42	288	7
HLD	43	0	2	96
TAP	43	96	1
TAP	43	192	0
TAP	43	288	0
TAP	43	288	7
HLD	44	0	0	96
TAP	44	96	7
TAP	44	192	6
TAP	44	288	5
TAP	44	288	7
HLD	45	0	7	96
TAP	45	96	0
TAP	45	192	1
TAP	45	288	0
TAP	45	288	2
STR	46	96	1
SI_	46	96	1	96	96	4
TAP	46	288	6
TAP	47	0	6
STR	47	96	6
SI_	47	96	6	96	96	3
TAP	47	288	1
TAP	48	0	1
STR	48	96	1
SI_	48	96	1	96	96	4
TAP	48	288	6
HLD	49	0	6	288
BRK	50	0	6
BRK	50	0	7
BRK	50	144	0
BRK	50	144	7
BRK	50	288	0
BRK	50	288	1
TAP	51	96	0
TAP	51	144	0
TAP	51	192	7
TAP	51	288	6
TAP	51	336	6
HLD	52	0	5	288
TAP	53	96	7
TAP	53	144	7
TAP	53	192	0
TAP	53	288	1
TAP	53	336	1
HLD	54	0	2	288
TAP	55	96	7
TAP	55	144	7
TAP	55	192	6
TAP	55	240	6
TAP	55	288	5
TAP	55	336	5
TAP	56	0	4
TAP	56	96	1
TAP	56	144	1
TAP	56	192	2
TAP	56	240	2
TAP	56	288	3
TAP	56	336	3
STR	57	0	3
SI_	57	0	3	96	192	7
TAP	58	96	5
TAP	58	144	5
TAP	58	192	4
TAP	58	240	4
TAP	58	288	3
TAP	58	336	3
HLD	59	0	2	288
TAP	60	96	2
TAP	60	144	2
TAP	60	192	3
TAP	60	240	3
TAP	60	288	4
TAP	60	336	4
HLD	61	0	5	288
HLD	61	144	4	144
TAP	61	336	6
TAP	61	336	7
TAP	62	48	0
TAP	62	48	1
TAP	62	144	2
TAP	62	144	3
HLD	62	288	2	96
TAP	63	0	1
HLD	63	96	7	96
TAP	63	192	6
HLD	63	288	5	96
TAP	64	0	6
HLD	64	96	1	96
HLD	64	192	0	96
STR	64	288	7
SI_	64	288	7	96	192	4
STR	66	0	0
SCL	66	0	0	96	192	5
HLD	67	0	7	144
TAP	67	192	7
HLD	68	0	0	144
TAP	68	192	0
HLD	69	0	1	144
TAP	69	192	0
TAP	69	192	2
HLD	70	0	2	144
TAP	70	192	1
TAP	70	192	3
HLD	71	0	3	96
TAP	71	144	3
TAP	71	192	3
HLD	72	0	4	96
TAP	72	144	4
TAP	72	192	4
HLD	73	0	5	96
TAP	73	144	5
STR	73	192	5
SI_	73	192	5	96	96	1
HLD	74	0	2	96
TAP	74	144	2
STR	74	192	2
SI_	74	192	2	96	96	6
TAP	75	0	1
TAP	75	96	1
HLD	75	192	0	96
TAP	75	288	2
TAP	76	0	6
TAP	76	96	6
HLD	76	192	7	96
TAP	76	288	5
TAP	77	0	2
TAP	77	96	2
HLD	77	192	3	96
TAP	77	288	1
TAP	78	0	5
TAP	78	96	5
HLD	78	192	4	96
TAP	78	288	6
TAP	79	0	0
TAP	79	96	0
STR	79	192	1
SCR	79	192	1	96	96	4
TAP	80	0	7
TAP	80	96	7
STR	80	192	6
SCL	80	192	6	96	96	3
TAP	81	0	1
TAP	81	96	1
STR	81	192	0
SCR	81	192	0	96	96	3
TAP	82	48	4
TAP	82	96	4
TAP	82	144	5
TAP	82	192	5
TAP	82	240	6
BRK	82	336	0
BRK	82	336	7

T_REC_TAP	176
T_REC_BRK	9
T_REC_XTP	0
T_REC_HLD	67
T_REC_XHO	0
T_REC_STR	14
T_REC_BST	0
T_REC_XST	0
T_REC_TTP	0
T_REC_THO	0
T_REC_SLD	14
T_REC_ALL	280
T_NUM_TAP	190
T_NUM_BRK	9
T_NUM_HLD	67
T_NUM_SLD	14
T_NUM_ALL	280
T_JUDGE_TAP	199
T_JUDGE_HLD	194
T_JUDGE_SLD	14
T_JUDGE_ALL	407
TTM_EACHPAIRS	21
TTM_SCR_TAP	95000
TTM_SCR_BRK	23400
TTM_SCR_HLD	67000
TTM_SCR_SLD	21000
TTM_SCR_ALL	206400
TTM_SCR_S	199350
TTM_SCR_SS	205500
TTM_RAT_ACV	10043

