VERSION	0.00.00	1.03.00
FES_MODE	0
BPM_DEF	152.000	152.000	152.000	152.000
MET_DEF	4	4
RESOLUTION	384
CLK_DEF	384
COMPATIBLE_CODE	MA2

BPM	0	0	152.000
MET	0	0	4	4

TAP	6	0	7
TAP	6	192	7
TAP	7	0	0
TAP	7	192	0
TAP	8	0	1
TAP	8	192	1
BRK	9	0	0
TAP	10	96	6
TAP	10	288	6
TAP	11	96	5
TAP	11	288	5
TAP	12	96	6
TAP	12	288	6
TAP	13	96	7
TAP	13	288	7
TAP	14	96	0
TAP	14	288	0
TAP	15	96	2
TAP	15	288	2
TAP	16	96	6
TAP	16	288	6
TAP	17	96	0
TAP	17	288	0
TAP	18	96	7
TAP	18	288	7
TAP	19	96	6
TAP	19	288	6
TAP	20	96	1
TAP	20	288	1
TAP	21	96	2
TAP	21	288	2
TAP	22	96	0
TAP	22	288	0
TAP	23	96	7
TAP	23	288	7
TAP	24	96	6
TAP	24	288	0
TAP	25	96	2
TAP	25	288	4
HLD	26	0	4	288
STR	27	0	3
SI_	27	0	3	96	192	7
STR	29	0	6
SI_	29	0	6	96	192	2
HLD	31	0	3	288
HLD	32	0	4	288
TAP	33	0	4
TAP	33	192	2
BRK	34	0	0
TAP	35	96	7
TAP	35	192	7
TAP	35	288	7
TAP	36	96	6
TAP	36	192	6
TAP	36	288	6
TAP	37	96	7
TAP	37	192	7
TAP	37	288	7
TAP	38	96	0
TAP	38	192	0
TAP	38	288	0
TAP	39	96	1
TAP	39	288	2
TAP	40	96	1
STR	40	288	0
SI_	40	288	0	96	192	3
TAP	43	96	5
TAP	43	192	5
TAP	43	288	5
TAP	44	96	1
TAP	44	192	1
TAP	44	288	1
TAP	45	96	7
TAP	45	192	7
TAP	45	288	7
TAP	46	96	0
TAP	46	192	0
TAP	46	288	0
TAP	47	96	1
TAP	47	288	1
TAP	48	96	2
TAP	48	288	2
TAP	49	96	1
TAP	49	288	1
TAP	50	96	0
BRK	50	288	7
TAP	51	96	6
TAP	51	192	6
TAP	51	288	6
TAP	52	96	5
TAP	52	192	5
TAP	52	288	5
TAP	53	96	7
TAP	53	192	7
TAP	53	288	7
TAP	54	96	0
TAP	54	192	0
TAP	54	288	0
TAP	55	96	1
TAP	55	288	1
TAP	56	96	2
TAP	56	288	2
TAP	57	96	1
TAP	57	288	1
TAP	58	96	7
BRK	58	288	0
BRK	58	288	7
TAP	59	96	7
TAP	59	288	6
TAP	60	96	5
TAP	60	288	4
TAP	61	96	3
TAP	61	288	2
TAP	62	96	1
TAP	62	288	0
TAP	63	96	1
TAP	63	192	1
TAP	63	288	1
TAP	64	96	3
TAP	64	192	3
TAP	64	288	3
TAP	65	96	1
TAP	65	192	1
TAP	65	288	1
TAP	66	96	7
TAP	66	192	7
TAP	66	288	7
HLD	67	0	6	672
HLD	69	0	5	672
TAP	71	96	7
TAP	71	288	7
TAP	72	96	0
TAP	72	288	0
TAP	73	96	1
TAP	73	288	1
TAP	74	96	2
STR	74	288	2
SI_	74	288	2	96	192	7
STR	76	288	6
SI_	76	288	6	96	192	3
TAP	79	0	0
TAP	79	192	0
TAP	80	0	7
TAP	80	192	7
TAP	81	0	6
TAP	81	192	6
STR	82	0	5
SI_	82	0	5	96	192	0

T_REC_TAP	126
T_REC_BRK	5
T_REC_XTP	0
T_REC_HLD	5
T_REC_XHO	0
T_REC_STR	6
T_REC_BST	0
T_REC_XST	0
T_REC_TTP	0
T_REC_THO	0
T_REC_SLD	6
T_REC_ALL	148
T_NUM_TAP	132
T_NUM_BRK	5
T_NUM_HLD	5
T_NUM_SLD	6
T_NUM_ALL	148
T_JUDGE_TAP	137
T_JUDGE_HLD	46
T_JUDGE_SLD	6
T_JUDGE_ALL	189
TTM_EACHPAIRS	1
TTM_SCR_TAP	66000
TTM_SCR_BRK	13000
TTM_SCR_HLD	5000
TTM_SCR_SLD	9000
TTM_SCR_ALL	93000
TTM_SCR_S	89750
TTM_SCR_SS	92500
TTM_RAT_ACV	10054

