VERSION	0.00.00	1.03.00
FES_MODE	0
BPM_DEF	190.000	190.000	190.000	190.000
MET_DEF	4	4
RESOLUTION	384
CLK_DEF	384
COMPATIBLE_CODE	MA2

BPM	0	0	190.000
MET	0	0	4	4

HLD	2	0	7	96
HLD	2	96	5	96
HLD	2	192	3	96
HLD	2	288	1	96
TAP	3	0	0
TAP	3	96	7
TAP	3	192	6
TAP	3	224	7
TAP	3	256	0
TAP	3	288	1
TAP	3	320	2
TAP	3	352	3
TAP	4	0	5
TAP	4	72	4
TAP	4	96	5
TAP	4	160	7
TAP	4	192	6
TAP	4	256	7
HLD	4	336	5	336
TAP	5	96	4
STR	5	192	6
SCR	5	192	6	96	48	1
TAP	6	0	1
TAP	6	64	0
TAP	6	96	1
TAP	6	160	2
TAP	6	192	3
TAP	6	256	2
HLD	6	336	4	336
TAP	7	96	5
STR	7	192	1
SCR	7	192	1	96	48	4
TAP	8	0	0
TAP	8	64	1
TAP	8	96	0
TAP	8	160	7
TAP	8	192	0
TAP	8	256	6
HLD	8	336	7	336
TAP	9	96	2
STR	9	192	2
SCL	9	192	2	96	48	7
TAP	10	0	2
TAP	10	64	3
TAP	10	96	2
TAP	10	160	4
TAP	10	192	3
TAP	10	256	5
HLD	10	336	3	336
TAP	11	96	4
STR	11	192	6
SCL	11	192	6	96	48	3
HLD	12	0	0	192
TAP	12	96	1
HLD	12	192	2	192
TAP	12	288	0
TAP	13	0	7
TAP	13	64	5
TAP	13	96	6
TAP	13	160	4
TAP	13	192	5
TAP	13	256	3
TAP	13	288	4
HLD	14	0	0	192
TAP	14	96	7
HLD	14	192	4	192
TAP	14	288	3
TAP	15	0	5
TAP	15	64	7
TAP	15	96	6
TAP	15	160	0
TAP	15	192	7
TAP	15	256	1
BRK	15	288	0
HLD	16	0	6	192
TAP	16	96	7
HLD	16	192	1	192
TAP	16	288	0
TAP	17	0	5
TAP	17	64	4
TAP	17	96	5
TAP	17	160	2
TAP	17	192	3
TAP	17	256	3
TAP	17	288	4
HLD	18	0	2	192
TAP	18	96	1
TAP	18	192	0
TAP	18	256	7
BRK	18	336	6
BRK	18	336	7
TAP	20	0	0
TAP	20	0	5
STR	20	144	0
SCR	20	144	0	96	48	3
STR	20	144	5
SCR	20	144	5	96	48	0
TAP	21	0	2
TAP	21	0	7
STR	21	144	2
SCL	21	144	2	96	72	7
STR	21	144	7
SCL	21	144	7	96	72	4
HLD	22	0	3	96
HLD	22	96	2	96
HLD	22	192	1	96
HLD	22	288	0	96
HLD	23	0	7	96
HLD	23	96	6	96
HLD	23	192	5	96
BRK	23	288	4
TAP	24	0	0
TAP	24	0	1
STR	24	144	0
SI_	24	144	0	96	72	4
STR	24	144	1
SI_	24	144	1	96	72	4
TAP	25	0	6
TAP	25	0	7
STR	25	144	6
SI_	25	144	6	96	72	3
STR	25	144	7
SI_	25	144	7	96	72	3
HLD	26	0	7	96
HLD	26	96	0	96
HLD	26	192	1	96
HLD	26	288	2	96
TAP	27	0	3
TAP	27	32	2
TAP	27	64	1
TAP	27	96	0
TAP	27	128	7
TAP	27	160	6
TAP	27	192	5
TAP	27	224	4
TAP	27	256	3
TAP	27	288	2
TAP	27	320	1
BRK	27	352	0
HLD	28	0	7	192
TAP	28	96	6
HLD	28	192	0	192
TAP	28	288	1
TAP	29	0	5
TAP	29	64	4
TAP	29	96	5
TAP	29	160	2
TAP	29	192	3
TAP	29	256	3
TAP	29	288	4
HLD	30	0	7	192
TAP	30	96	0
HLD	30	192	4	192
TAP	30	288	3
TAP	31	0	2
TAP	31	64	1
TAP	31	96	0
TAP	31	160	0
TAP	31	192	7
TAP	31	256	7
BRK	31	288	6
HLD	32	0	1	192
TAP	32	96	2
HLD	32	192	6	192
TAP	32	288	5
TAP	33	0	4
TAP	33	64	3
TAP	33	96	4
TAP	33	160	0
TAP	33	192	7
TAP	33	256	3
TAP	33	288	4
HLD	34	0	5	192
TAP	34	96	6
TAP	34	192	7
TAP	34	256	0
BRK	34	336	0
BRK	34	336	1
TAP	36	0	2
TAP	36	0	7
STR	36	144	2
SCL	36	144	2	96	72	7
STR	36	144	7
SCL	36	144	7	96	72	4
TAP	37	0	0
TAP	37	0	5
STR	37	144	0
SCR	37	144	0	96	48	3
STR	37	144	5
SCR	37	144	5	96	48	0
HLD	38	0	0	96
HLD	38	96	6	96
HLD	38	192	5	96
HLD	38	288	4	96
HLD	39	0	3	96
HLD	39	96	1	96
HLD	39	192	7	96
BRK	39	288	0
TAP	40	0	6
TAP	40	0	7
STR	40	144	6
SI_	40	144	6	96	72	3
STR	40	144	7
SI_	40	144	7	96	72	3
TAP	41	0	0
TAP	41	0	1
STR	41	144	0
SI_	41	144	0	96	72	4
STR	41	144	1
SI_	41	144	1	96	72	4
HLD	42	0	3	96
HLD	42	96	1	96
HLD	42	192	7	96
TAP	42	288	6
BRK	43	0	5
BRK	43	0	6
TAP	44	0	1
TAP	44	64	0
TAP	44	96	0
TAP	44	192	2
TAP	44	256	3
TAP	44	288	3
TAP	45	0	7
TAP	45	64	6
TAP	45	96	6
TAP	45	192	5
TAP	45	256	4
TAP	45	288	4
TAP	46	0	2
TAP	46	64	3
TAP	46	96	3
TAP	46	192	7
TAP	46	256	6
TAP	46	288	6
TAP	47	0	1
TAP	47	64	0
TAP	47	96	0
TAP	47	192	4
TAP	47	256	5
TAP	47	288	5
STR	48	0	0
SI_	48	0	0	96	48	4
TAP	48	64	7
TAP	48	96	7
HLD	48	192	6	96
TAP	48	256	5
TAP	48	288	5
STR	49	0	7
SI_	49	0	7	96	48	3
TAP	49	64	0
TAP	49	96	0
HLD	49	192	1	96
TAP	49	256	2
TAP	49	288	2
STR	50	0	1
SI_	50	0	1	96	48	5
TAP	50	64	2
TAP	50	96	2
HLD	50	192	1	96
TAP	50	256	7
TAP	50	288	7
STR	51	0	6
SI_	51	0	6	96	48	2
TAP	51	64	5
TAP	51	96	5
HLD	51	192	1	96
TAP	51	256	0
TAP	51	288	0
TAP	51	352	7
TAP	52	0	0
TAP	52	64	6
TAP	52	96	6
TAP	52	160	1
TAP	52	192	1
TAP	52	256	0
TAP	52	288	7
TAP	52	352	3
TAP	53	0	4
TAP	53	64	2
TAP	53	96	2
TAP	53	160	5
TAP	53	192	5
TAP	53	256	3
TAP	53	288	4
TAP	53	352	1
TAP	54	0	0
TAP	54	64	0
TAP	54	96	7
TAP	54	160	7
TAP	54	192	6
TAP	54	256	0
TAP	54	288	7
TAP	54	352	3
TAP	55	0	4
TAP	55	64	2
TAP	55	96	3
TAP	55	160	4
TAP	55	192	3
TAP	55	256	5
TAP	55	288	4
TAP	55	352	7
HLD	56	0	0	288
TAP	56	96	2
TAP	56	192	3
HLD	56	288	4	96
HLD	57	0	5	192
TAP	57	96	6
TAP	57	192	7
TAP	58	0	1
TAP	58	0	5
TAP	58	64	2
TAP	58	64	6
TAP	58	128	3
TAP	58	128	7
TAP	58	192	2
TAP	58	192	6
TAP	58	256	1
TAP	58	256	5
TAP	58	320	0
TAP	58	320	4
BRK	59	0	3
BRK	59	0	7
STR	60	0	7
SI_	60	0	7	96	48	2
TAP	60	64	4
TAP	60	96	4
TAP	60	160	5
STR	60	192	6
SI_	60	192	6	96	48	3
TAP	60	256	2
TAP	60	288	2
TAP	60	352	1
STR	61	0	0
SI_	61	0	0	96	48	5
TAP	61	64	3
TAP	61	96	3
TAP	61	160	2
STR	61	192	1
SI_	61	192	1	96	47	4
TAP	61	256	6
TAP	61	288	6
TAP	61	352	7
TAP	62	0	6
TAP	62	64	0
TAP	62	96	7
TAP	62	160	1
TAP	62	192	5
TAP	62	256	3
TAP	62	288	4
TAP	62	352	3
TAP	63	0	1
TAP	63	64	4
TAP	63	96	3
TAP	63	160	6
TAP	63	192	1
TAP	63	224	0
TAP	63	256	1
TAP	63	288	6
TAP	63	320	7
BRK	63	352	6
STR	64	0	1
SI_	64	0	1	96	48	6
TAP	64	64	4
TAP	64	96	4
TAP	64	160	3
STR	64	192	5
SI_	64	192	5	96	48	2
TAP	64	256	0
TAP	64	288	0
TAP	64	352	7
STR	65	0	1
SI_	65	0	1	96	48	6
TAP	65	64	4
TAP	65	96	4
TAP	65	160	4
STR	65	192	5
SI_	65	192	5	96	48	2
TAP	65	256	0
TAP	65	288	0
TAP	65	352	7
TAP	66	0	1
TAP	66	64	7
TAP	66	96	0
TAP	66	160	6
TAP	66	192	2
TAP	66	256	4
TAP	66	288	3
TAP	66	352	5
TAP	67	0	6
TAP	67	64	3
TAP	67	96	4
TAP	67	160	1
TAP	67	192	6
TAP	67	224	7
TAP	67	256	6
TAP	67	288	1
TAP	67	320	0
BRK	67	352	1
TAP	68	0	5
TAP	68	32	7
TAP	68	64	5
TAP	68	96	2
TAP	68	128	0
TAP	68	160	2
TAP	68	192	6
TAP	68	224	4
TAP	68	256	6
TAP	68	288	1
TAP	68	320	3
TAP	68	352	1
TAP	69	0	6
TAP	69	32	0
TAP	69	64	6
TAP	69	96	1
TAP	69	128	7
TAP	69	160	1
TAP	69	192	6
TAP	69	224	7
TAP	69	256	6
TAP	69	288	1
TAP	69	320	0
TAP	69	352	1
TAP	70	0	5
TAP	70	32	4
TAP	70	64	5
TAP	70	96	2
TAP	70	128	3
TAP	70	160	2
TAP	70	192	5
TAP	70	224	7
TAP	70	256	5
TAP	70	288	2
TAP	70	320	0
TAP	70	352	2
TAP	71	0	7
TAP	71	32	0
TAP	71	64	7
TAP	71	96	1
TAP	71	128	6
TAP	71	160	1
TAP	71	192	5
TAP	71	224	2
TAP	71	256	5
TAP	71	288	3
TAP	71	320	4
BRK	71	352	3
TAP	72	0	7
TAP	72	32	0
TAP	72	64	6
TAP	72	96	3
TAP	72	128	4
TAP	72	160	2
TAP	72	192	5
TAP	72	224	4
TAP	72	256	6
TAP	72	288	2
TAP	72	320	3
TAP	72	352	1
TAP	73	0	6
TAP	73	32	7
TAP	73	64	0
TAP	73	96	2
TAP	73	128	3
TAP	73	160	4
TAP	73	192	6
TAP	73	224	7
TAP	73	256	6
TAP	73	288	1
TAP	73	320	0
TAP	73	352	1
TAP	74	0	2
TAP	74	32	4
TAP	74	64	3
TAP	74	96	5
TAP	74	128	3
TAP	74	160	4
TAP	74	192	2
TAP	74	224	5
TAP	74	256	3
TAP	74	288	4
TAP	74	320	2
TAP	74	352	5
TAP	75	0	1
TAP	75	32	7
TAP	75	64	0
TAP	75	96	6
TAP	75	128	0
TAP	75	160	7
TAP	75	192	1
TAP	75	224	6
TAP	75	256	0
TAP	75	288	7
TAP	75	320	1
BRK	75	352	6
HLD	76	0	2	192
HLD	76	192	1	192
HLD	77	0	0	193
HLD	77	192	7	384
TAP	79	0	0
TAP	79	24	1
TAP	79	48	2
TAP	79	72	3
TAP	79	96	4
TAP	79	120	5
TAP	79	144	6
TAP	79	168	7
TAP	79	192	0
TAP	79	216	1
TAP	79	240	2
TAP	79	264	3
STR	79	288	4
SI_	79	288	4	96	672	0
TAP	79	312	5
TAP	79	336	6
TAP	79	360	7

T_REC_TAP	378
T_REC_BRK	17
T_REC_XTP	0
T_REC_HLD	54
T_REC_XHO	0
T_REC_STR	33
T_REC_BST	0
T_REC_XST	0
T_REC_TTP	0
T_REC_THO	0
T_REC_SLD	33
T_REC_ALL	515
T_NUM_TAP	411
T_NUM_BRK	17
T_NUM_HLD	54
T_NUM_SLD	33
T_NUM_ALL	515
T_JUDGE_TAP	428
T_JUDGE_HLD	175
T_JUDGE_SLD	33
T_JUDGE_ALL	636
TTM_EACHPAIRS	26
TTM_SCR_TAP	205500
TTM_SCR_BRK	44200
TTM_SCR_HLD	54000
TTM_SCR_SLD	49500
TTM_SCR_ALL	353200
TTM_SCR_S	341000
TTM_SCR_SS	351500
TTM_RAT_ACV	10048

