VERSION	0.00.00	1.03.00
FES_MODE	0
BPM_DEF	190.000	190.000	190.000	190.000
MET_DEF	4	4
RESOLUTION	384
CLK_DEF	384
COMPATIBLE_CODE	MA2

BPM	0	0	190.000
MET	0	0	4	4

TAP	2	0	1
TAP	2	96	1
TAP	2	192	6
TAP	2	288	6
TAP	3	0	1
TAP	3	96	1
TAP	3	192	7
TAP	3	224	0
TAP	3	256	7
TAP	3	288	0
TAP	3	320	7
TAP	3	352	0
TAP	4	0	6
TAP	4	64	6
TAP	4	96	0
TAP	4	160	0
TAP	4	192	7
TAP	4	240	1
STR	4	320	0
SI_	4	320	0	96	160	5
TAP	6	0	1
TAP	6	64	1
TAP	6	96	7
TAP	6	160	7
TAP	6	192	0
TAP	6	240	6
STR	6	320	7
SI_	6	320	7	96	160	2
TAP	8	0	0
TAP	8	64	7
TAP	8	96	0
TAP	8	160	7
TAP	8	192	1
TAP	8	240	5
STR	8	320	6
SCL	8	320	6	96	160	3
TAP	10	0	7
TAP	10	64	0
TAP	10	96	7
TAP	10	160	0
TAP	10	192	6
TAP	10	240	2
STR	10	320	1
SCR	10	320	1	96	160	4
TAP	12	0	1
TAP	12	64	1
TAP	12	96	7
TAP	12	192	1
TAP	12	256	1
TAP	12	288	7
TAP	13	0	6
TAP	13	64	6
TAP	13	96	0
TAP	13	192	6
TAP	13	256	6
TAP	13	288	0
TAP	14	0	2
TAP	14	64	2
TAP	14	96	4
TAP	14	192	2
TAP	14	256	2
TAP	14	288	4
TAP	15	0	5
TAP	15	64	5
TAP	15	96	3
TAP	15	192	5
TAP	15	256	5
TAP	15	288	3
TAP	16	0	7
TAP	16	64	0
TAP	16	96	1
TAP	16	192	0
TAP	16	256	1
TAP	16	288	2
TAP	17	0	0
TAP	17	64	7
TAP	17	96	6
TAP	17	192	7
TAP	17	256	6
TAP	17	288	5
TAP	18	0	1
TAP	18	64	2
TAP	18	96	3
TAP	18	192	2
TAP	18	256	3
TAP	18	288	4
TAP	19	0	6
TAP	19	64	5
TAP	19	96	4
TAP	19	192	5
TAP	19	256	4
TAP	19	288	3
STR	19	352	2
SCL	19	352	2	96	128	7
TAP	20	256	3
TAP	20	288	4
STR	20	352	5
SCR	20	352	5	96	128	0
TAP	21	256	1
TAP	21	288	0
TAP	21	352	7
STR	22	0	6
SI_	22	0	6	96	96	2
TAP	23	256	3
TAP	23	288	4
STR	23	352	5
SCR	23	352	5	96	128	0
TAP	24	256	4
TAP	24	288	3
STR	24	352	2
SCL	24	352	2	96	128	7
TAP	25	256	6
TAP	25	288	7
TAP	25	352	0
STR	26	0	1
SI_	26	0	1	96	96	6
BRK	27	0	3
TAP	28	0	1
TAP	28	64	1
TAP	28	96	4
TAP	28	160	4
TAP	28	192	1
TAP	28	256	1
TAP	28	288	4
TAP	28	352	4
TAP	29	0	2
TAP	29	64	2
TAP	29	96	5
TAP	29	160	5
TAP	29	192	2
TAP	29	256	2
TAP	29	288	5
TAP	29	352	3
TAP	30	0	6
TAP	30	64	6
TAP	30	96	3
TAP	30	160	3
TAP	30	192	6
TAP	30	256	6
TAP	30	288	3
TAP	30	352	3
TAP	31	0	5
TAP	31	64	5
TAP	31	96	0
TAP	31	160	7
TAP	31	192	0
TAP	31	256	7
TAP	31	288	0
TAP	31	352	7
TAP	32	0	1
TAP	32	64	1
TAP	32	96	7
TAP	32	160	7
TAP	32	192	2
TAP	32	256	2
TAP	32	288	0
TAP	32	352	0
TAP	33	0	6
TAP	33	64	6
TAP	33	96	0
TAP	33	160	0
TAP	33	192	5
TAP	33	256	5
TAP	33	288	7
TAP	33	352	7
TAP	34	0	0
TAP	34	64	5
TAP	34	96	1
TAP	34	160	1
TAP	34	192	7
TAP	34	256	2
TAP	34	288	6
TAP	34	352	6
TAP	35	0	0
TAP	35	64	0
TAP	35	96	7
TAP	35	160	7
TAP	35	192	0
TAP	35	256	5
TAP	35	288	4
STR	35	352	3
SI_	35	352	3	96	80	6
HLD	36	144	0	112
TAP	36	256	2
TAP	36	288	3
STR	36	352	4
SI_	36	352	4	96	80	1
TAP	37	0	4
HLD	37	144	7	112
TAP	37	256	5
TAP	37	288	4
TAP	37	352	3
TAP	38	0	2
TAP	38	64	2
TAP	38	96	3
TAP	38	160	3
TAP	38	192	5
TAP	38	256	5
TAP	38	288	4
TAP	38	352	4
TAP	39	0	2
TAP	39	64	2
TAP	39	96	3
TAP	39	160	3
TAP	39	192	5
TAP	39	256	2
TAP	39	288	3
STR	39	352	4
SI_	39	352	4	96	80	1
HLD	40	144	7	112
TAP	40	256	5
TAP	40	288	4
STR	40	352	3
SI_	40	352	3	96	80	6
HLD	41	144	0	112
TAP	41	256	2
TAP	41	288	3
TAP	41	352	4
TAP	42	0	5
TAP	42	64	5
TAP	42	96	4
TAP	42	160	4
TAP	42	192	3
TAP	42	256	3
TAP	42	288	2
BRK	42	352	6
TAP	43	192	0
TAP	43	288	4
HLD	43	336	1	144
HLD	44	96	0	96
HLD	44	192	6	96
TAP	44	288	5
TAP	44	352	5
HLD	45	0	6	96
HLD	45	96	7	96
HLD	45	192	1	96
TAP	45	288	2
TAP	45	352	2
HLD	46	0	1	96
TAP	46	96	2
TAP	46	160	1
HLD	46	192	6	96
TAP	46	288	5
TAP	46	352	6
HLD	47	0	1	96
TAP	47	96	2
TAP	47	160	1
HLD	47	192	6	96
TAP	47	288	5
TAP	47	352	6
HLD	48	0	1	96
HLD	48	96	2	96
HLD	48	192	3	96
TAP	48	288	4
TAP	48	352	4
HLD	49	0	6	96
HLD	49	96	5	96
HLD	49	192	4	96
TAP	49	288	3
TAP	49	352	3
HLD	50	0	2	96
TAP	50	96	5
TAP	50	160	2
HLD	50	192	5	96
TAP	50	288	1
TAP	50	352	5
HLD	51	0	1	96
TAP	51	96	6
TAP	51	160	1
HLD	51	192	6	96
TAP	51	288	0
HLD	51	336	7	336
TAP	52	96	1
TAP	52	192	2
TAP	52	288	3
HLD	53	0	0	288
TAP	53	96	6
TAP	53	192	5
TAP	53	288	4
HLD	54	0	7	64
TAP	54	64	6
TAP	54	96	1
HLD	54	192	0	64
TAP	54	256	1
TAP	54	288	6
HLD	55	0	7	64
TAP	55	64	6
TAP	55	96	1
HLD	55	192	0	64
TAP	55	256	1
TAP	55	288	6
TAP	56	0	3
TAP	56	64	3
TAP	56	96	4
TAP	56	160	4
TAP	56	192	2
TAP	56	256	2
TAP	56	288	5
TAP	56	352	5
TAP	57	0	1
TAP	57	64	1
TAP	57	96	6
TAP	57	160	6
TAP	57	192	0
TAP	57	256	0
TAP	57	288	7
TAP	57	352	7
HLD	58	0	0	96
HLD	58	192	7	96
BRK	59	0	0
BRK	59	0	1
BRK	59	48	2
BRK	59	48	7
BRK	59	144	0
BRK	59	144	5
TAP	60	0	0
TAP	60	0	7
TAP	60	96	4
TAP	60	96	5
TAP	60	192	0
TAP	60	192	1
TAP	60	288	3
TAP	60	288	4
TAP	61	0	0
TAP	61	0	7
TAP	61	96	2
TAP	61	96	3
TAP	61	192	6
TAP	61	192	7
TAP	61	288	3
TAP	61	288	4
TAP	62	0	0
TAP	62	0	7
TAP	62	96	4
TAP	62	96	5
TAP	62	192	0
TAP	62	192	1
TAP	62	288	3
TAP	62	288	4
TAP	63	0	1
TAP	63	0	2
TAP	63	96	6
TAP	63	96	7
TAP	63	192	2
TAP	63	192	3
TAP	63	288	5
TAP	63	288	6
TAP	64	0	0
TAP	64	0	7
TAP	64	96	2
TAP	64	96	3
TAP	64	192	6
TAP	64	192	7
TAP	64	288	3
TAP	64	288	4
TAP	65	0	0
TAP	65	0	7
TAP	65	96	4
TAP	65	96	5
TAP	65	192	0
TAP	65	192	1
TAP	65	288	3
TAP	65	288	4
TAP	66	0	0
TAP	66	0	7
TAP	66	96	2
TAP	66	96	3
TAP	66	192	6
TAP	66	192	7
TAP	66	288	3
TAP	66	288	4
TAP	67	0	5
TAP	67	0	6
TAP	67	96	0
TAP	67	96	1
TAP	67	192	4
TAP	67	192	5
TAP	67	288	1
TAP	67	288	2
TAP	67	352	7
TAP	68	0	0
TAP	68	64	5
TAP	68	96	4
TAP	68	160	0
TAP	68	192	1
TAP	68	256	1
TAP	68	288	0
TAP	68	352	0
TAP	69	0	7
TAP	69	64	2
TAP	69	96	3
TAP	69	160	7
TAP	69	192	6
TAP	69	256	6
TAP	69	288	7
TAP	69	352	7
TAP	70	0	0
TAP	70	64	5
TAP	70	96	4
TAP	70	160	0
TAP	70	192	1
TAP	70	256	1
TAP	70	288	2
TAP	70	352	2
TAP	71	0	1
TAP	71	64	7
TAP	71	96	6
TAP	71	160	2
TAP	71	192	3
TAP	71	256	6
TAP	71	288	5
TAP	71	352	0
TAP	72	0	7
TAP	72	64	2
TAP	72	96	3
TAP	72	160	7
TAP	72	192	6
TAP	72	256	6
TAP	72	288	7
TAP	72	352	7
TAP	73	0	0
TAP	73	64	5
TAP	73	96	4
TAP	73	160	0
TAP	73	192	1
TAP	73	256	1
TAP	73	288	0
TAP	73	352	0
TAP	74	0	7
TAP	74	64	2
TAP	74	96	3
TAP	74	160	7
TAP	74	192	6
TAP	74	256	6
TAP	74	288	5
TAP	74	352	5
TAP	75	0	6
TAP	75	64	0
TAP	75	96	1
TAP	75	160	5
TAP	75	192	4
TAP	75	256	1
TAP	75	288	2
TAP	75	352	7
HLD	76	0	0	1152
TAP	79	0	7
TAP	79	32	6
TAP	79	64	7
TAP	79	96	0
TAP	79	128	7
TAP	79	160	0
TAP	79	192	1
TAP	79	224	0
TAP	79	256	1
TAP	79	288	0
STR	79	352	1
SI_	79	352	1	96	320	5

T_REC_TAP	386
T_REC_BRK	8
T_REC_XTP	0
T_REC_HLD	33
T_REC_XHO	0
T_REC_STR	15
T_REC_BST	0
T_REC_XST	0
T_REC_TTP	0
T_REC_THO	0
T_REC_SLD	15
T_REC_ALL	457
T_NUM_TAP	401
T_NUM_BRK	8
T_NUM_HLD	33
T_NUM_SLD	15
T_NUM_ALL	457
T_JUDGE_TAP	409
T_JUDGE_HLD	102
T_JUDGE_SLD	15
T_JUDGE_ALL	526
TTM_EACHPAIRS	35
TTM_SCR_TAP	200500
TTM_SCR_BRK	20800
TTM_SCR_HLD	33000
TTM_SCR_SLD	22500
TTM_SCR_ALL	276800
TTM_SCR_S	267750
TTM_SCR_SS	276000
TTM_RAT_ACV	10028

