VERSION	0.00.00	1.03.00
FES_MODE	0
BPM_DEF	190.000	190.000	190.000	190.000
MET_DEF	4	4
RESOLUTION	384
CLK_DEF	384
COMPATIBLE_CODE	MA2

BPM	0	0	190.000
MET	0	0	4	4

TAP	4	0	0
TAP	4	96	0
TAP	4	192	1
TAP	4	288	1
TAP	5	0	2
TAP	5	96	2
TAP	5	192	3
TAP	5	288	3
TAP	6	0	1
TAP	6	96	1
TAP	6	192	0
TAP	6	288	0
TAP	7	0	7
TAP	7	96	7
TAP	7	192	6
TAP	7	288	6
TAP	8	0	0
TAP	8	96	0
TAP	8	192	1
TAP	8	288	1
TAP	9	0	2
TAP	9	96	2
TAP	9	192	3
TAP	9	288	3
TAP	10	0	2
TAP	10	96	2
TAP	10	192	1
TAP	10	288	1
TAP	11	0	0
TAP	11	96	0
TAP	11	192	7
BRK	11	288	7
TAP	12	0	0
TAP	12	96	0
TAP	12	192	1
TAP	12	288	1
TAP	13	0	2
TAP	13	96	2
TAP	13	192	3
TAP	13	288	3
TAP	14	0	4
TAP	14	96	4
TAP	14	192	5
TAP	14	288	5
TAP	15	0	6
TAP	15	96	6
TAP	15	192	7
TAP	15	288	7
TAP	16	0	0
TAP	16	96	0
TAP	16	192	7
TAP	16	288	7
TAP	17	0	6
TAP	17	96	6
TAP	17	192	5
TAP	17	288	5
TAP	18	0	4
TAP	18	96	4
TAP	18	192	3
TAP	18	288	3
TAP	19	0	2
TAP	19	96	2
TAP	19	192	1
TAP	19	288	1
TAP	20	0	0
TAP	20	0	1
HLD	20	144	0	144
HLD	20	144	7	144
TAP	21	0	6
TAP	21	0	7
HLD	21	144	4	144
HLD	21	144	5	144
TAP	22	0	6
TAP	22	96	6
TAP	22	192	7
TAP	22	288	7
TAP	23	0	0
TAP	23	96	0
TAP	23	192	1
TAP	23	288	1
TAP	24	0	2
TAP	24	0	3
HLD	24	144	3	144
HLD	24	144	4	144
TAP	25	0	2
TAP	25	0	3
HLD	25	144	0	144
HLD	25	144	1	144
TAP	26	0	7
TAP	26	96	6
TAP	26	192	5
TAP	26	288	4
BRK	27	0	2
BRK	27	0	3
TAP	28	0	4
TAP	28	96	4
TAP	28	192	3
TAP	28	288	3
TAP	29	0	5
TAP	29	96	5
TAP	29	192	1
TAP	29	288	1
TAP	30	0	7
TAP	30	96	7
TAP	30	192	0
TAP	30	288	0
TAP	31	0	7
TAP	31	96	6
TAP	31	96	7
TAP	31	192	5
TAP	31	192	6
TAP	31	288	4
TAP	31	288	5
TAP	32	0	3
TAP	32	96	3
TAP	32	192	4
TAP	32	288	4
TAP	33	0	2
TAP	33	96	2
TAP	33	192	6
TAP	33	288	6
TAP	34	0	0
TAP	34	96	0
TAP	34	192	7
TAP	34	288	7
TAP	35	0	0
TAP	35	96	0
TAP	35	96	1
TAP	35	192	1
TAP	35	192	2
TAP	35	288	2
TAP	35	288	3
TAP	36	0	1
TAP	36	0	2
HLD	36	144	0	144
HLD	36	144	1	144
TAP	37	0	0
TAP	37	0	7
HLD	37	144	6	144
HLD	37	144	7	144
TAP	38	0	0
TAP	38	96	0
TAP	38	192	1
TAP	38	288	1
TAP	39	0	0
TAP	39	96	0
TAP	39	192	7
TAP	39	288	7
TAP	40	0	6
TAP	40	0	7
HLD	40	144	4	144
HLD	40	144	5	144
TAP	41	0	6
TAP	41	0	7
HLD	41	144	0	144
HLD	41	144	1	144
TAP	42	0	2
TAP	42	96	3
TAP	42	192	4
TAP	42	288	5
BRK	43	0	6
STR	44	0	0
SI_	44	0	0	96	192	3
STR	45	0	7
SI_	45	0	7	96	192	4
TAP	46	0	0
TAP	46	96	1
TAP	46	192	2
TAP	46	288	0
TAP	46	288	1
TAP	47	0	7
TAP	47	96	6
TAP	47	192	5
TAP	47	288	0
TAP	47	288	7
STR	48	0	1
SI_	48	0	1	96	192	6
STR	49	0	5
SI_	49	0	5	96	192	2
HLD	50	0	3	192
HLD	50	192	4	192
HLD	51	0	5	192
BRK	51	192	6
TAP	52	0	0
TAP	52	96	0
TAP	52	192	1
TAP	52	288	1
TAP	53	0	0
TAP	53	96	0
TAP	53	192	7
TAP	53	288	7
TAP	54	0	6
TAP	54	96	6
TAP	54	192	5
TAP	54	288	5
TAP	55	0	4
TAP	55	96	4
TAP	55	192	3
TAP	55	288	3
STR	56	0	2
SI_	56	0	2	96	192	7
STR	57	0	5
SI_	57	0	5	96	192	0
HLD	58	0	0	192
HLD	58	192	1	192
TAP	59	0	2
BRK	59	144	0
BRK	59	144	7
TAP	60	0	0
TAP	60	96	0
TAP	60	96	1
TAP	60	192	0
TAP	60	288	0
TAP	60	288	7
TAP	61	0	7
TAP	61	96	6
TAP	61	96	7
TAP	61	192	7
TAP	61	288	0
TAP	61	288	7
TAP	62	0	0
TAP	62	96	0
TAP	62	96	1
TAP	62	192	2
TAP	62	288	3
TAP	62	288	4
TAP	63	0	2
TAP	63	96	0
TAP	63	96	1
TAP	63	192	0
TAP	63	288	0
TAP	63	288	7
TAP	64	0	7
TAP	64	96	6
TAP	64	96	7
TAP	64	192	5
TAP	64	288	3
TAP	64	288	4
TAP	65	0	5
TAP	65	96	6
TAP	65	96	7
TAP	65	192	7
TAP	65	288	0
TAP	65	288	7
TAP	66	0	1
TAP	66	96	2
TAP	66	96	3
TAP	66	192	1
TAP	66	288	0
TAP	66	288	7
TAP	67	0	6
TAP	67	96	0
TAP	67	96	7
TAP	67	192	1
TAP	67	288	0
TAP	67	288	7
TAP	68	0	6
TAP	68	96	5
TAP	68	96	6
TAP	68	192	4
TAP	68	288	3
TAP	68	288	4
TAP	69	0	3
TAP	69	96	2
TAP	69	96	3
TAP	69	192	2
TAP	69	288	1
TAP	69	288	2
TAP	70	0	3
TAP	70	96	3
TAP	70	96	4
TAP	70	192	4
TAP	70	288	4
TAP	70	288	5
TAP	71	0	5
TAP	71	96	5
TAP	71	96	6
TAP	71	192	6
TAP	71	288	6
TAP	71	288	7
TAP	72	0	7
TAP	72	96	0
TAP	72	96	7
TAP	72	192	2
TAP	72	288	2
TAP	72	288	3
TAP	73	0	1
TAP	73	96	0
TAP	73	96	7
TAP	73	192	6
TAP	73	288	5
TAP	73	288	6
TAP	74	0	7
TAP	74	96	0
TAP	74	96	7
TAP	74	192	1
TAP	74	288	1
TAP	74	288	2
TAP	75	0	3
TAP	75	96	3
TAP	75	96	4
TAP	75	192	5
TAP	75	288	5
TAP	75	288	6
HLD	76	0	7	192
HLD	76	192	0	192
HLD	77	0	1	192
HLD	77	192	2	576
STR	79	0	3
SI_	79	0	3	96	96	7
HLD	79	336	0	1008

T_REC_TAP	264
T_REC_BRK	7
T_REC_XTP	0
T_REC_HLD	26
T_REC_XHO	0
T_REC_STR	7
T_REC_BST	0
T_REC_XST	0
T_REC_TTP	0
T_REC_THO	0
T_REC_SLD	7
T_REC_ALL	311
T_NUM_TAP	271
T_NUM_BRK	7
T_NUM_HLD	26
T_NUM_SLD	7
T_NUM_ALL	311
T_JUDGE_TAP	278
T_JUDGE_HLD	113
T_JUDGE_SLD	7
T_JUDGE_ALL	398
TTM_EACHPAIRS	58
TTM_SCR_TAP	135500
TTM_SCR_BRK	18200
TTM_SCR_HLD	26000
TTM_SCR_SLD	10500
TTM_SCR_ALL	190200
TTM_SCR_S	183850
TTM_SCR_SS	189500
TTM_RAT_ACV	10036

