VERSION	0.00.00	1.03.00
FES_MODE	0
BPM_DEF	190.000	190.000	190.000	190.000
MET_DEF	4	4
RESOLUTION	384
CLK_DEF	384
COMPATIBLE_CODE	MA2

BPM	0	0	190.000
MET	0	0	4	4

TAP	4	0	1
TAP	5	0	2
TAP	6	0	3
TAP	7	0	4
TAP	8	0	5
TAP	9	0	6
TAP	10	0	7
BRK	11	0	7
TAP	12	96	1
TAP	12	288	1
TAP	13	96	2
TAP	13	288	2
TAP	14	96	1
TAP	14	288	1
TAP	15	96	0
TAP	15	288	0
TAP	16	96	7
TAP	16	288	7
TAP	17	96	6
TAP	17	288	6
TAP	18	96	5
TAP	18	288	5
TAP	19	96	4
TAP	19	288	4
HLD	20	0	4	144
HLD	21	0	3	144
TAP	22	96	4
TAP	22	288	4
TAP	23	96	5
TAP	23	288	5
HLD	24	0	5	144
HLD	25	0	6	144
TAP	26	96	7
TAP	26	288	0
BRK	27	0	0
TAP	28	96	0
TAP	28	288	1
TAP	29	96	0
TAP	29	288	1
TAP	30	96	0
TAP	30	288	7
TAP	31	96	6
TAP	31	192	5
TAP	31	288	6
TAP	32	96	7
TAP	32	288	0
TAP	33	96	7
TAP	33	288	0
TAP	34	96	1
TAP	34	288	2
TAP	35	96	3
TAP	35	192	4
TAP	35	288	3
HLD	36	0	2	144
HLD	37	0	0	144
TAP	38	96	1
TAP	38	288	1
TAP	39	96	2
TAP	39	288	2
HLD	40	0	1	144
HLD	41	0	7	144
TAP	42	96	0
TAP	42	288	1
BRK	43	0	1
TAP	44	96	7
TAP	44	192	7
TAP	44	288	7
TAP	45	96	6
TAP	45	192	6
TAP	45	288	6
TAP	46	96	7
TAP	46	192	7
TAP	46	288	7
TAP	47	96	0
TAP	47	192	0
TAP	47	288	0
STR	48	0	1
SI_	48	0	1	96	192	4
STR	49	0	6
SI_	49	0	6	96	192	3
HLD	50	0	1	576
TAP	52	96	2
TAP	52	192	2
TAP	52	288	2
TAP	53	96	1
TAP	53	192	1
TAP	53	288	1
TAP	54	96	0
TAP	54	192	0
TAP	54	288	0
TAP	55	96	7
TAP	55	192	7
TAP	55	288	7
HLD	56	0	6	288
HLD	57	0	5	192
TAP	58	0	6
TAP	58	0	7
TAP	58	192	0
TAP	58	192	7
TAP	59	0	0
TAP	59	0	1
BRK	59	192	0
BRK	59	192	7
TAP	60	96	1
TAP	60	192	2
TAP	60	288	1
TAP	61	96	0
TAP	61	192	7
TAP	61	288	6
TAP	62	96	7
TAP	62	192	0
TAP	62	288	0
TAP	63	96	7
TAP	63	192	6
TAP	63	288	5
TAP	64	0	4
TAP	64	96	3
TAP	64	192	3
TAP	64	288	3
TAP	65	96	4
TAP	65	192	4
TAP	65	288	4
TAP	66	96	2
TAP	66	192	2
TAP	66	288	2
TAP	67	96	6
TAP	67	192	6
TAP	67	288	6
TAP	68	0	7
TAP	68	96	0
TAP	68	192	0
TAP	68	288	0
TAP	69	0	7
TAP	69	96	6
TAP	69	192	6
TAP	69	288	6
TAP	70	0	5
TAP	70	96	4
TAP	70	192	4
TAP	70	288	4
TAP	71	0	5
TAP	71	96	6
TAP	71	192	6
TAP	71	288	6
TAP	72	0	7
TAP	72	96	0
TAP	72	192	0
TAP	72	288	0
TAP	73	0	1
TAP	73	96	2
TAP	73	192	2
TAP	73	288	2
TAP	74	0	1
TAP	74	96	0
TAP	74	192	7
TAP	74	288	7
TAP	75	0	6
TAP	75	96	5
TAP	75	192	5
TAP	75	288	5
HLD	76	0	6	384
BRK	77	192	6
HLD	79	336	0	1008
HLD	79	336	7	1008

T_REC_TAP	140
T_REC_BRK	6
T_REC_XTP	0
T_REC_HLD	14
T_REC_XHO	0
T_REC_STR	2
T_REC_BST	0
T_REC_XST	0
T_REC_TTP	0
T_REC_THO	0
T_REC_SLD	2
T_REC_ALL	164
T_NUM_TAP	142
T_NUM_BRK	6
T_NUM_HLD	14
T_NUM_SLD	2
T_NUM_ALL	164
T_JUDGE_TAP	148
T_JUDGE_HLD	96
T_JUDGE_SLD	2
T_JUDGE_ALL	246
TTM_EACHPAIRS	5
TTM_SCR_TAP	71000
TTM_SCR_BRK	15600
TTM_SCR_HLD	14000
TTM_SCR_SLD	3000
TTM_SCR_ALL	103600
TTM_SCR_S	99950
TTM_SCR_SS	103000
TTM_RAT_ACV	10058

