VERSION	0.00.00	1.03.00
FES_MODE	0
BPM_DEF	185.000	185.000	185.000	185.000
MET_DEF	4	4
RESOLUTION	384
CLK_DEF	384
COMPATIBLE_CODE	MA2

BPM	0	0	185.000
MET	0	0	4	4

TAP	2	48	1
TAP	2	96	2
TAP	2	192	6
TAP	2	240	5
TAP	2	336	1
TAP	3	0	2
TAP	3	0	3
TAP	3	96	6
TAP	3	144	4
TAP	3	144	5
HLD	3	240	1	96
HLD	3	336	3	144
TAP	4	48	5
HLD	4	96	5	96
TAP	4	192	7
TAP	4	240	6
TAP	4	336	3
TAP	4	336	5
TAP	5	48	1
TAP	5	48	3
TAP	5	144	1
TAP	5	144	7
TAP	5	240	5
TAP	5	240	7
TAP	5	336	3
TAP	5	336	5
TAP	6	48	2
TAP	6	96	1
TAP	6	192	5
TAP	6	240	6
TAP	6	336	2
TAP	7	0	0
TAP	7	0	1
TAP	7	96	5
TAP	7	144	6
TAP	7	144	7
HLD	7	240	0	96
HLD	7	336	1	96
TAP	8	48	2
TAP	8	96	1
TAP	8	96	3
TAP	8	192	5
TAP	8	240	4
TAP	8	240	6
TAP	8	336	2
TAP	8	336	5
HLD	9	0	1	64
HLD	9	64	0	64
HLD	9	128	7	64
HLD	9	192	6	64
HLD	9	256	5	64
HLD	9	320	4	64
BRK	10	0	3
TAP	10	192	5
TAP	10	240	6
TAP	10	288	7
TAP	10	336	0
TAP	11	48	1
TAP	11	48	3
TAP	11	144	0
TAP	11	144	2
TAP	11	240	4
TAP	11	240	6
TAP	11	336	5
TAP	11	336	7
TAP	12	48	3
TAP	12	96	3
TAP	12	96	4
TAP	12	192	2
TAP	12	240	1
TAP	12	288	0
TAP	12	336	7
TAP	13	48	4
TAP	13	48	6
TAP	13	144	5
TAP	13	144	7
TAP	13	240	1
TAP	13	240	3
TAP	13	336	0
TAP	13	336	2
TAP	14	48	4
TAP	14	96	3
TAP	14	96	4
TAP	14	192	6
TAP	14	240	5
TAP	14	288	4
TAP	14	336	3
TAP	15	48	0
TAP	15	48	2
TAP	15	144	1
TAP	15	144	3
TAP	15	240	5
TAP	15	240	7
TAP	15	336	4
TAP	15	336	6
TAP	16	48	3
TAP	16	96	3
TAP	16	96	4
HLD	16	192	3	48
HLD	16	240	2	48
HLD	16	288	1	48
HLD	16	336	0	192
HLD	17	144	7	96
HLD	17	240	6	96
HLD	17	336	5	144
TAP	18	192	0
STR	18	192	1
SI_	18	192	1	96	48	4
TAP	18	240	7
TAP	18	288	6
TAP	18	336	5
TAP	19	48	3
STR	19	48	6
SI_	19	48	6	96	48	3
TAP	19	144	1
STR	19	240	1
SI_	19	240	1	96	48	4
TAP	19	240	4
TAP	19	336	6
STR	20	192	3
SI_	20	192	3	96	48	6
TAP	20	192	6
TAP	20	240	7
TAP	20	288	0
TAP	20	336	1
TAP	21	0	2
TAP	21	96	2
TAP	21	96	3
TAP	21	144	1
STR	21	144	4
SI_	21	144	4	96	48	1
STR	21	240	0
SCL	21	240	0	96	48	5
TAP	22	192	0
TAP	22	192	2
TAP	22	256	1
TAP	22	256	3
TAP	22	320	5
TAP	22	320	7
TAP	23	0	4
TAP	23	0	6
TAP	23	192	0
TAP	23	192	2
TAP	23	256	2
TAP	23	256	4
TAP	23	320	4
TAP	23	320	6
HLD	24	0	0	240
HLD	24	0	6	240
STR	24	288	0
SCR	24	288	0	96	48	3
STR	24	288	6
SCL	24	288	6	96	48	3
STR	25	336	5
SI_	25	336	5	96	48	1
HLD	26	192	4	72
HLD	26	264	3	72
STR	26	336	2
SI_	26	336	2	96	48	7
HLD	27	0	2	192
HLD	27	192	0	72
HLD	27	264	7	72
STR	27	336	6
SI_	27	336	6	96	48	3
HLD	28	0	6	192
HLD	28	192	7	72
HLD	28	264	0	72
STR	28	336	1
SI_	28	336	1	96	48	4
HLD	29	0	1	288
TAP	29	336	3
STR	29	336	7
SI_	29	336	7	96	48	3
TAP	30	48	2
TAP	30	96	1
TAP	30	192	5
TAP	30	240	6
STR	30	336	0
SI_	30	336	0	96	48	4
TAP	30	336	4
TAP	31	48	5
TAP	31	96	6
TAP	31	192	2
TAP	31	240	1
STR	31	336	3
SI_	31	336	3	96	48	7
TAP	31	336	7
TAP	32	48	1
TAP	32	96	2
TAP	32	192	6
TAP	32	240	5
TAP	32	336	0
STR	32	336	4
SI_	32	336	4	96	48	0
TAP	33	48	6
TAP	33	96	5
TAP	33	192	1
TAP	33	240	2
TAP	33	336	0
STR	34	48	0
SCL	34	48	0	96	48	5
TAP	34	96	0
STR	34	192	2
SCL	34	192	2	96	48	7
TAP	34	240	2
TAP	34	336	4
STR	35	48	4
SCL	35	48	4	96	48	1
TAP	35	96	4
STR	35	192	6
SCL	35	192	6	96	48	3
TAP	35	240	6
TAP	35	336	7
STR	36	48	7
SCR	36	48	7	96	48	2
TAP	36	96	7
STR	36	192	5
SCR	36	192	5	96	48	0
TAP	36	240	5
TAP	36	336	3
STR	37	48	3
SCR	37	48	3	96	48	6
TAP	37	96	3
STR	37	192	1
SCR	37	192	1	96	48	4
TAP	37	240	1
TAP	37	336	0
STR	38	48	6
SI_	38	48	6	96	48	2
STR	38	144	0
SI_	38	144	0	96	48	4
TAP	38	192	0
HLD	39	0	7	64
HLD	39	64	3	64
HLD	39	128	6	64
HLD	39	192	5	64
HLD	39	256	1	64
HLD	39	320	2	64
STR	40	0	0
SI_	40	0	0	96	48	4
STR	40	144	7
SI_	40	144	7	96	48	3
STR	40	288	1
SI_	40	288	1	96	48	4
STR	41	48	6
SI_	41	48	6	96	48	3
BRK	41	240	4
TAP	42	0	7
STR	42	48	3
SI_	42	48	3	96	96	7
STR	42	144	7
SCL	42	144	7	96	96	4
STR	42	240	4
SI_	42	240	4	96	48	1
BRK	42	336	1
STR	43	192	0
SCL	43	192	0	96	96	5
STR	43	288	5
SI_	43	288	5	96	48	1
BRK	44	0	1
STR	44	144	7
SI_	44	144	7	96	48	3
HLD	44	240	7	96
STR	44	336	0
SI_	44	336	0	96	48	5
HLD	45	48	0	96
STR	45	144	7
SI_	45	144	7	96	48	2
HLD	45	240	7	96
STR	45	336	0
SI_	45	336	0	96	48	4
HLD	46	48	0	96
STR	46	144	7
SI_	46	144	7	96	48	3
HLD	46	240	7	96
STR	46	336	0
SI_	46	336	0	96	48	5
HLD	47	48	0	96
TAP	47	192	2
TAP	47	264	3
TAP	47	336	2
TAP	47	336	3
STR	48	0	2
SI_	48	0	2	96	48	7
STR	48	0	3
SI_	48	0	3	96	48	6
TAP	48	192	5
TAP	48	264	4
STR	48	336	4
SI_	48	336	4	96	48	1
STR	48	336	5
SI_	48	336	5	96	48	0
TAP	49	0	4
TAP	49	0	5
HLD	49	144	7	240
HLD	50	0	0	64
HLD	50	64	1	64
HLD	50	128	2	64
HLD	50	192	3	64
HLD	50	256	4	64
HLD	50	320	5	208
HLD	51	0	1	144
STR	51	192	7
SCR	51	192	7	96	96	2
STR	51	288	2
SI_	51	288	2	96	48	6
BRK	52	0	6
STR	52	144	1
SI_	52	144	1	96	48	4
HLD	52	240	1	96
STR	52	336	6
SI_	52	336	6	96	48	2
HLD	53	48	6	96
STR	53	144	1
SI_	53	144	1	96	48	5
HLD	53	240	1	96
STR	53	336	6
SI_	53	336	6	96	48	3
HLD	54	48	6	96
STR	54	144	1
SCR	54	144	1	96	48	4
HLD	54	240	1	96
STR	54	336	6
SCL	54	336	6	96	48	3
HLD	55	48	6	96
STR	55	192	1
SI_	55	192	1	96	48	5
STR	55	288	0
SI_	55	288	0	96	48	3
STR	56	0	7
SI_	56	0	7	96	48	4
STR	56	144	6
SI_	56	144	6	96	48	2
STR	56	240	0
SI_	56	240	0	96	48	3
STR	56	336	7
SI_	56	336	7	96	48	4
TAP	57	0	7
HLD	57	144	1	144
HLD	57	144	3	144
STR	58	0	6
SCL	58	0	6	96	48	3
BRK	58	96	1
STR	58	144	1
SCL	58	144	1	96	48	6
BRK	58	240	4
STR	58	288	4
SCL	58	288	4	96	48	1
STR	59	192	0
SCL	59	192	0	96	96	5
STR	59	288	5
SI_	59	288	5	96	96	1
STR	60	0	1
SCR	60	0	1	96	96	4
STR	60	96	4
SI_	60	96	4	96	48	0
BRK	60	192	0
STR	60	336	0
SI_	60	336	0	96	48	5
TAP	60	336	5
TAP	61	48	6
TAP	61	144	3
STR	61	144	7
SI_	61	144	7	96	48	3
TAP	61	240	1
STR	61	336	0
SI_	61	336	0	96	48	4
TAP	61	336	4
TAP	62	48	5
STR	62	144	1
SI_	62	144	1	96	48	4
TAP	62	144	4
TAP	62	240	7
TAP	62	336	3
STR	62	336	6
SI_	62	336	6	96	48	3
TAP	63	48	0
TAP	63	192	1
TAP	63	264	0
TAP	63	336	0
TAP	63	336	1
STR	64	0	0
SCL	64	0	0	96	48	5
STR	64	0	1
SCR	64	0	1	96	48	4
TAP	64	192	6
TAP	64	264	7
STR	64	336	6
SCL	64	336	6	96	48	3
STR	64	336	7
SCR	64	336	7	96	48	2
TAP	65	0	6
TAP	65	0	7
HLD	65	144	0	240
HLD	66	0	7	64
HLD	66	64	6	64
HLD	66	128	5	64
HLD	66	192	4	64
HLD	66	256	3	64
HLD	66	320	2	208
HLD	67	0	6	144
STR	67	192	7
SCR	67	192	7	96	96	2
STR	67	288	2
SI_	67	288	2	96	48	5
BRK	68	0	5
TAP	68	144	2
STR	68	144	7
SI_	68	144	7	96	48	2
TAP	68	240	1
STR	68	336	0
SI_	68	336	0	96	48	5
TAP	68	336	5
TAP	69	48	6
TAP	69	144	3
STR	69	144	7
SI_	69	144	7	96	48	3
TAP	69	240	1
STR	69	336	0
SI_	69	336	0	96	48	4
TAP	69	336	4
TAP	70	48	5
BRK	70	96	6
STR	70	144	1
SI_	70	144	1	96	48	4
TAP	70	144	4
TAP	70	240	7
BRK	70	288	5
TAP	70	336	3
STR	70	336	6
SI_	70	336	6	96	48	3
TAP	71	48	0
BRK	71	96	2
STR	71	192	6
SI_	71	192	6	96	48	1
STR	71	288	7
SI_	71	288	7	96	48	3
STR	72	0	5
SI_	72	0	5	96	48	2
STR	72	144	0
SI_	72	144	0	96	48	4
STR	72	240	1
SI_	72	240	1	96	48	6
STR	72	336	2
SI_	72	336	2	96	48	5
TAP	73	0	2
HLD	73	144	4	144
HLD	73	144	6	144
STR	74	0	3
SCR	74	0	3	96	48	6
TAP	74	96	0
STR	74	144	0
SCR	74	144	0	96	48	3
TAP	74	240	5
STR	74	288	5
SCR	74	288	5	96	48	0
STR	75	192	4
SCL	75	192	4	96	48	1
TAP	75	288	4
STR	75	336	4
SCR	75	336	4	96	48	7
TAP	76	48	4
STR	76	96	4
SI_	76	96	4	96	48	0
TAP	77	192	4
TAP	77	192	5
TAP	77	240	4
TAP	77	240	5
TAP	77	288	2
TAP	77	288	7
TAP	77	336	2
TAP	77	336	7
TAP	78	0	3
TAP	78	0	6
TAP	78	48	3
TAP	78	48	6
TAP	78	96	0
TAP	78	96	1
TAP	78	144	0
TAP	78	144	1
TAP	78	192	6
TAP	78	192	7
TAP	78	240	6
TAP	78	240	7
TAP	78	288	1
TAP	78	288	4
TAP	78	336	1
TAP	78	336	4
TAP	79	0	0
TAP	79	0	5
TAP	79	48	0
TAP	79	48	5
TAP	79	96	2
TAP	79	96	3
TAP	79	192	0
TAP	79	256	3
TAP	79	320	5
BRK	80	0	0
BRK	80	0	2
TAP	80	64	4
TAP	80	128	6
BRK	80	192	2
BRK	80	192	4
BRK	80	256	1
BRK	80	256	6
TAP	80	320	6
BRK	81	0	3
BRK	81	0	6
BRK	81	64	1
BRK	81	64	4
BRK	81	128	0
BRK	81	128	7

T_REC_TAP	231
T_REC_BRK	24
T_REC_XTP	0
T_REC_HLD	67
T_REC_XHO	0
T_REC_STR	95
T_REC_BST	0
T_REC_XST	0
T_REC_TTP	0
T_REC_THO	0
T_REC_SLD	95
T_REC_ALL	512
T_NUM_TAP	326
T_NUM_BRK	24
T_NUM_HLD	67
T_NUM_SLD	95
T_NUM_ALL	512
T_JUDGE_TAP	350
T_JUDGE_HLD	167
T_JUDGE_SLD	95
T_JUDGE_ALL	612
TTM_EACHPAIRS	88
TTM_SCR_TAP	163000
TTM_SCR_BRK	62400
TTM_SCR_HLD	67000
TTM_SCR_SLD	142500
TTM_SCR_ALL	434900
TTM_SCR_S	419550
TTM_SCR_SS	432500
TTM_RAT_ACV	10055

