VERSION	0.00.00	1.03.00
FES_MODE	0
BPM_DEF	185.000	185.000	185.000	185.000
MET_DEF	4	4
RESOLUTION	384
CLK_DEF	384
COMPATIBLE_CODE	MA2

BPM	0	0	185.000
MET	0	0	4	4

TAP	2	48	2
TAP	2	96	4
TAP	2	192	4
TAP	2	240	5
TAP	2	288	2
TAP	2	336	3
TAP	3	48	3
TAP	3	96	4
TAP	3	144	1
TAP	3	240	1
TAP	3	288	2
TAP	3	336	3
TAP	4	48	3
TAP	4	96	4
TAP	4	144	2
TAP	4	192	3
TAP	4	240	1
TAP	4	288	5
TAP	4	336	4
TAP	5	48	4
TAP	5	96	3
TAP	5	144	2
TAP	5	240	2
TAP	5	288	4
TAP	5	336	5
TAP	6	48	5
TAP	6	96	3
TAP	6	192	3
TAP	6	240	2
TAP	6	288	5
TAP	6	336	4
TAP	7	48	4
TAP	7	96	3
TAP	7	144	6
TAP	7	240	6
TAP	7	288	5
TAP	7	336	4
TAP	8	48	4
TAP	8	96	3
TAP	8	144	5
TAP	8	192	4
TAP	8	240	6
TAP	8	288	2
BRK	8	336	0
TAP	9	288	7
TAP	9	336	0
TAP	10	48	0
TAP	10	96	2
TAP	10	192	2
TAP	10	240	1
TAP	10	288	7
TAP	10	336	0
TAP	11	48	6
TAP	11	48	7
TAP	11	144	1
TAP	11	144	2
TAP	11	240	4
TAP	11	240	5
STR	11	336	3
SI_	11	336	3	96	48	7
TAP	12	96	5
TAP	12	192	5
TAP	12	240	6
TAP	12	288	0
TAP	12	336	7
TAP	13	48	0
TAP	13	48	1
TAP	13	144	5
TAP	13	144	6
TAP	13	240	2
TAP	13	240	3
STR	13	336	5
SI_	13	336	5	96	48	1
TAP	14	96	2
TAP	14	192	2
TAP	14	240	5
TAP	14	288	4
TAP	14	336	0
TAP	15	48	2
TAP	15	48	3
TAP	15	144	6
TAP	15	144	7
TAP	15	240	4
TAP	15	240	5
STR	15	336	2
SI_	15	336	2	96	48	5
TAP	16	96	6
TAP	16	192	6
TAP	16	240	3
TAP	16	288	4
HLD	16	336	1	96
HLD	17	48	7	96
HLD	17	144	5	96
HLD	17	240	3	96
STR	17	336	1
SI_	17	336	1	96	48	4
TAP	18	96	3
TAP	18	192	3
TAP	18	240	1
TAP	18	288	5
TAP	18	336	7
TAP	19	48	5
TAP	19	48	6
TAP	19	144	3
TAP	19	144	4
TAP	19	240	1
TAP	19	240	2
STR	19	336	0
SI_	19	336	0	96	48	4
TAP	19	336	7
TAP	20	96	3
TAP	20	192	3
TAP	20	240	5
TAP	20	288	1
TAP	20	336	7
STR	21	0	0
SCL	21	0	0	96	48	5
STR	21	144	7
SCR	21	144	7	96	48	2
STR	21	336	0
SI_	21	336	0	96	48	5
TAP	22	96	6
TAP	22	192	5
TAP	22	192	6
TAP	22	264	6
TAP	22	264	7
TAP	22	336	0
STR	22	336	7
SI_	22	336	7	96	48	2
TAP	23	96	1
TAP	23	192	1
TAP	23	192	2
TAP	23	264	0
TAP	23	264	1
TAP	23	336	0
TAP	23	336	7
HLD	24	0	1	192
HLD	24	0	6	576
STR	24	240	1
SI_	24	240	1	96	240	4
TAP	24	288	1
TAP	25	336	0
TAP	25	336	7
TAP	26	192	4
TAP	26	264	4
TAP	26	336	5
HLD	27	0	6	480
TAP	27	192	3
TAP	27	264	3
TAP	27	336	2
HLD	28	0	1	672
TAP	28	192	7
TAP	28	264	7
TAP	28	336	6
HLD	29	0	5	288
STR	29	336	3
SI_	29	336	3	96	192	0
STR	29	336	7
SCL	29	336	7	96	192	4
STR	30	336	0
SCR	30	336	0	96	192	3
STR	30	336	4
SI_	30	336	4	96	192	7
STR	31	336	3
SI_	31	336	3	96	192	6
STR	31	336	7
SI_	31	336	7	96	192	2
TAP	32	336	1
STR	33	0	1
SI_	33	0	1	96	144	6
STR	33	240	0
SI_	33	240	0	96	96	4
STR	33	336	7
SI_	33	336	7	96	96	3
TAP	34	240	4
TAP	34	288	1
TAP	34	336	4
TAP	35	0	3
TAP	35	48	6
TAP	35	96	3
TAP	35	144	7
TAP	35	240	0
STR	35	336	1
SI_	35	336	1	96	96	4
TAP	36	240	0
TAP	36	288	7
STR	36	336	6
SI_	36	336	6	96	96	3
HLD	38	0	1	72
HLD	38	72	0	72
HLD	38	144	7	48
HLD	38	192	0	96
HLD	39	0	6	72
HLD	39	72	7	72
HLD	39	144	0	48
HLD	39	192	2	72
HLD	39	264	1	72
HLD	39	336	0	48
HLD	40	0	7	672
TAP	42	0	0
TAP	42	0	7
TAP	42	48	0
TAP	42	48	7
BRK	42	144	0
BRK	42	144	5
BRK	42	240	2
BRK	42	240	7
STR	42	336	6
SI_	42	336	6	96	48	3
STR	42	336	7
SI_	42	336	7	96	48	2
HLD	43	192	0	48
HLD	43	192	2	48
HLD	43	288	1	48
HLD	43	288	3	48
HLD	44	0	0	96
HLD	44	0	2	96
TAP	44	144	5
TAP	44	144	7
TAP	44	240	4
TAP	44	240	6
TAP	44	336	1
TAP	44	336	7
TAP	45	48	4
TAP	45	48	6
TAP	45	144	0
TAP	45	144	2
TAP	45	240	3
TAP	45	240	5
TAP	45	336	2
HLD	45	336	4	192
TAP	46	48	3
TAP	46	96	3
HLD	46	144	3	192
TAP	46	240	5
TAP	46	288	5
HLD	46	336	5	144
TAP	47	48	2
TAP	47	96	2
TAP	47	192	2
TAP	47	264	1
TAP	47	336	0
HLD	48	0	0	480
TAP	48	192	5
TAP	48	264	6
TAP	48	336	7
HLD	49	0	7	288
HLD	49	144	0	144
TAP	50	0	4
TAP	50	0	5
TAP	50	72	5
TAP	50	72	6
TAP	50	144	6
TAP	50	144	7
TAP	50	192	0
TAP	50	192	7
TAP	50	264	0
TAP	50	264	1
TAP	50	336	1
TAP	50	336	2
BRK	51	0	2
BRK	51	0	3
HLD	51	192	5	48
HLD	51	192	7	48
HLD	51	288	4	48
HLD	51	288	6	48
HLD	52	0	5	96
HLD	52	0	7	96
TAP	52	144	0
TAP	52	144	2
TAP	52	240	1
TAP	52	240	3
TAP	52	336	0
TAP	52	336	6
TAP	53	48	1
TAP	53	48	3
TAP	53	144	5
TAP	53	144	7
TAP	53	240	2
TAP	53	240	4
HLD	53	336	3	192
TAP	53	336	5
TAP	54	48	4
TAP	54	96	4
HLD	54	144	4	192
TAP	54	240	2
TAP	54	288	2
HLD	54	336	2	144
TAP	55	48	5
TAP	55	96	5
HLD	55	192	2	48
HLD	55	192	4	48
HLD	55	288	3	48
HLD	55	288	5	48
HLD	56	0	2	96
HLD	56	0	4	96
TAP	56	144	3
TAP	56	144	5
TAP	56	240	4
TAP	56	240	6
TAP	56	336	5
TAP	56	336	7
STR	57	0	7
SCR	57	0	7	96	96	2
STR	57	144	6
SCL	57	144	6	96	96	3
BRK	58	0	5
BRK	58	0	6
BRK	58	144	1
BRK	58	144	2
STR	58	288	3
SI_	58	288	3	96	48	0
STR	58	288	4
SI_	58	288	4	96	48	7
HLD	59	192	0	48
HLD	59	192	5	48
HLD	59	288	1	48
HLD	59	288	4	48
BRK	60	0	0
BRK	60	0	3
TAP	60	192	4
TAP	60	192	7
TAP	60	240	0
TAP	60	240	5
TAP	60	336	1
TAP	60	336	6
TAP	61	48	0
TAP	61	48	5
TAP	61	144	1
TAP	61	144	4
TAP	61	240	2
TAP	61	240	5
TAP	61	336	1
HLD	61	336	4	192
TAP	62	48	3
TAP	62	96	3
HLD	62	144	3	192
TAP	62	240	5
TAP	62	288	5
HLD	62	336	5	144
TAP	63	48	2
TAP	63	96	2
TAP	63	192	2
TAP	63	264	4
TAP	63	336	6
HLD	64	0	6	480
TAP	64	192	5
TAP	64	264	3
TAP	64	336	1
HLD	65	0	1	288
HLD	65	144	6	144
TAP	66	0	3
TAP	66	0	4
TAP	66	72	2
TAP	66	72	3
TAP	66	144	4
TAP	66	144	5
TAP	66	192	1
TAP	66	192	2
TAP	66	264	5
TAP	66	264	6
TAP	66	336	0
TAP	66	336	1
BRK	67	0	0
BRK	67	0	7
HLD	67	192	2	48
HLD	67	192	7	48
HLD	67	288	3	48
HLD	67	288	6	48
HLD	68	0	4	96
HLD	68	0	7	96
TAP	68	144	0
TAP	68	144	3
TAP	68	240	2
TAP	68	240	7
TAP	68	336	1
TAP	68	336	6
TAP	69	48	2
TAP	69	48	7
TAP	69	144	3
TAP	69	144	6
TAP	69	240	2
TAP	69	240	5
HLD	69	336	3	192
TAP	69	336	6
TAP	70	48	4
TAP	70	96	4
HLD	70	144	4	192
TAP	70	240	2
TAP	70	288	2
HLD	70	336	2	144
TAP	71	48	5
TAP	71	96	5
HLD	71	192	2	48
HLD	71	192	7	48
HLD	71	288	0	48
HLD	71	288	5	48
HLD	72	0	1	96
HLD	72	0	6	96
TAP	72	144	0
TAP	72	144	3
TAP	72	240	2
TAP	72	240	7
TAP	72	336	1
TAP	72	336	6
STR	73	0	0
SCL	73	0	0	96	96	5
STR	73	144	1
SCR	73	144	1	96	96	4
BRK	74	0	1
BRK	74	0	2
BRK	74	144	5
BRK	74	144	6
STR	74	288	3
SI_	74	288	3	96	48	0
STR	74	288	4
SI_	74	288	4	96	48	7
BRK	75	192	5
BRK	75	192	6
BRK	75	336	1
BRK	75	336	2
STR	76	96	0
SI_	76	96	0	96	48	3
STR	76	96	7
SI_	76	96	7	96	48	4
STR	77	96	4
SI_	77	96	4	96	672	0
TAP	77	192	4
TAP	77	288	4
TAP	78	0	4
TAP	78	96	4
TAP	78	192	4
TAP	78	288	4
TAP	79	0	4
TAP	79	96	4
TAP	79	192	6
TAP	79	192	7
TAP	79	256	1
TAP	79	256	2
TAP	79	320	4
TAP	79	320	5
TAP	80	0	0
TAP	80	0	1
TAP	80	64	5
TAP	80	64	6
TAP	80	128	1
TAP	80	128	2
TAP	80	192	6
TAP	80	192	7
TAP	80	256	3
TAP	80	256	4
TAP	80	320	0
TAP	80	320	1
TAP	81	0	2
TAP	81	0	3
TAP	81	64	0
TAP	81	64	7
TAP	81	128	4
TAP	81	128	5

T_REC_TAP	296
T_REC_BRK	23
T_REC_XTP	0
T_REC_HLD	72
T_REC_XHO	0
T_REC_STR	34
T_REC_BST	0
T_REC_XST	0
T_REC_TTP	0
T_REC_THO	0
T_REC_SLD	34
T_REC_ALL	459
T_NUM_TAP	330
T_NUM_BRK	23
T_NUM_HLD	72
T_NUM_SLD	34
T_NUM_ALL	459
T_JUDGE_TAP	353
T_JUDGE_HLD	211
T_JUDGE_SLD	34
T_JUDGE_ALL	598
TTM_EACHPAIRS	116
TTM_SCR_TAP	165000
TTM_SCR_BRK	59800
TTM_SCR_HLD	72000
TTM_SCR_SLD	51000
TTM_SCR_ALL	347800
TTM_SCR_S	335150
TTM_SCR_SS	345500
TTM_RAT_ACV	10066

