VERSION	0.00.00	1.03.00
FES_MODE	0
BPM_DEF	185.000	185.000	185.000	185.000
MET_DEF	4	4
RESOLUTION	384
CLK_DEF	384
COMPATIBLE_CODE	MA2

BPM	0	0	185.000
MET	0	0	4	4

TAP	2	96	0
TAP	2	288	0
TAP	3	96	1
TAP	3	288	1
TAP	4	96	0
TAP	4	288	0
TAP	5	96	7
TAP	5	288	7
TAP	6	96	6
TAP	6	288	6
TAP	7	96	5
TAP	7	288	5
TAP	8	96	6
STR	8	288	0
SI_	8	288	0	96	96	3
HLD	9	336	6	384
TAP	10	336	5
TAP	11	48	4
TAP	11	144	5
TAP	11	240	7
HLD	11	336	1	384
TAP	12	336	2
TAP	13	48	3
TAP	13	144	4
TAP	13	240	2
HLD	13	336	0	384
TAP	14	336	7
TAP	15	48	7
TAP	15	144	6
TAP	15	240	6
HLD	15	336	5	384
HLD	16	336	4	384
STR	17	336	3
SI_	17	336	3	96	96	7
TAP	18	336	0
TAP	19	48	2
TAP	19	144	4
STR	19	240	6
SI_	19	240	6	96	96	2
HLD	21	0	1	96
TAP	21	96	0
TAP	21	144	0
TAP	21	240	7
HLD	21	336	6	144
HLD	22	192	5	144
HLD	22	336	4	144
HLD	23	192	5	144
STR	23	336	6
SI_	23	336	6	96	96	1
BRK	24	336	0
TAP	26	0	1
TAP	26	96	1
TAP	26	192	2
TAP	26	288	2
TAP	27	0	1
TAP	27	96	1
TAP	27	192	2
TAP	27	288	2
TAP	28	0	1
TAP	28	96	1
TAP	28	192	0
TAP	28	288	0
TAP	29	0	7
TAP	29	96	7
TAP	29	192	6
TAP	29	288	6
STR	29	336	5
SI_	29	336	5	96	96	1
HLD	30	336	1	288
TAP	31	240	0
HLD	31	336	7	432
HLD	33	0	6	96
TAP	33	96	5
TAP	33	144	5
TAP	33	240	4
STR	33	336	3
SI_	33	336	3	96	96	0
HLD	35	0	0	144
TAP	35	144	1
TAP	35	240	2
HLD	35	336	3	288
TAP	36	240	1
TAP	36	288	0
HLD	36	336	7	336
STR	38	0	6
SI_	38	0	6	96	96	1
STR	39	0	2
SI_	39	0	2	96	96	5
HLD	40	0	1	672
HLD	40	0	6	672
TAP	42	0	0
TAP	42	0	7
TAP	42	48	0
TAP	42	48	7
TAP	42	144	0
TAP	42	144	1
TAP	42	240	1
TAP	42	240	2
BRK	42	336	0
BRK	42	336	1
TAP	43	192	7
TAP	43	288	6
HLD	44	0	5	144
TAP	44	144	4
TAP	44	240	3
TAP	44	336	4
TAP	45	48	5
TAP	45	144	6
TAP	45	240	7
HLD	45	336	0	720
STR	48	0	1
SI_	48	0	1	96	96	5
STR	49	0	6
SI_	49	0	6	96	96	3
HLD	50	0	0	288
HLD	50	0	1	288
BRK	51	0	0
BRK	51	0	7
TAP	51	192	0
TAP	51	288	1
HLD	52	0	2	144
TAP	52	144	3
TAP	52	240	4
TAP	52	336	3
TAP	53	48	2
TAP	53	144	1
TAP	53	240	0
HLD	53	336	7	528
TAP	55	192	7
TAP	55	288	6
HLD	56	0	5	144
TAP	56	144	6
TAP	56	240	0
TAP	56	336	2
STR	57	0	2
SI_	57	0	2	96	96	7
TAP	58	0	6
TAP	58	0	7
TAP	58	144	0
TAP	58	144	5
TAP	58	288	2
TAP	58	288	7
TAP	59	192	0
TAP	59	288	1
BRK	60	0	3
BRK	60	0	7
TAP	60	192	6
TAP	60	240	6
TAP	60	336	5
TAP	61	48	4
TAP	61	144	3
TAP	61	240	2
HLD	61	336	1	528
STR	64	0	0
SI_	64	0	0	96	96	4
STR	65	0	6
SI_	65	0	6	96	96	3
HLD	66	0	0	288
HLD	66	0	4	288
BRK	67	0	1
BRK	67	0	6
TAP	67	192	2
TAP	67	288	3
HLD	68	0	4	144
TAP	68	144	5
TAP	68	240	6
TAP	68	336	5
TAP	69	48	4
TAP	69	144	3
TAP	69	240	2
HLD	69	336	1	528
TAP	71	192	0
TAP	71	288	7
HLD	72	0	6	144
TAP	72	144	5
TAP	72	240	4
TAP	72	336	3
STR	73	0	3
SI_	73	0	3	96	96	7
TAP	74	0	6
TAP	74	0	7
TAP	74	144	0
TAP	74	144	5
TAP	74	288	2
TAP	74	288	7
TAP	75	192	0
TAP	75	192	4
TAP	75	336	1
TAP	75	336	5
HLD	76	96	2	384
HLD	76	96	6	384
STR	77	192	4
SI_	77	192	4	96	192	0
TAP	79	192	0
TAP	79	256	0
TAP	79	320	2
TAP	80	0	2
TAP	80	64	4
TAP	80	129	4
TAP	80	192	6
TAP	80	256	6
TAP	80	320	7
TAP	81	0	7
TAP	81	64	0
BRK	81	128	0

T_REC_TAP	132
T_REC_BRK	10
T_REC_XTP	0
T_REC_HLD	33
T_REC_XHO	0
T_REC_STR	15
T_REC_BST	0
T_REC_XST	0
T_REC_TTP	0
T_REC_THO	0
T_REC_SLD	15
T_REC_ALL	205
T_NUM_TAP	147
T_NUM_BRK	10
T_NUM_HLD	33
T_NUM_SLD	15
T_NUM_ALL	205
T_JUDGE_TAP	157
T_JUDGE_HLD	218
T_JUDGE_SLD	15
T_JUDGE_ALL	390
TTM_EACHPAIRS	20
TTM_SCR_TAP	73500
TTM_SCR_BRK	26000
TTM_SCR_HLD	33000
TTM_SCR_SLD	22500
TTM_SCR_ALL	155000
TTM_SCR_S	149400
TTM_SCR_SS	154000
TTM_RAT_ACV	10064

