VERSION	0.00.00	1.03.00
FES_MODE	0
BPM_DEF	185.000	185.000	185.000	185.000
MET_DEF	4	4
RESOLUTION	384
CLK_DEF	384
COMPATIBLE_CODE	MA2

BPM	0	0	185.000
MET	0	0	4	4

TAP	2	96	0
TAP	2	288	0
TAP	3	96	1
TAP	3	288	1
TAP	4	96	0
TAP	4	288	0
TAP	5	96	7
TAP	5	288	7
TAP	6	96	6
TAP	6	288	6
TAP	7	96	5
STR	7	288	5
SI_	7	288	5	96	192	1
BRK	9	0	1
TAP	10	96	2
TAP	10	288	2
TAP	11	96	3
TAP	11	288	3
TAP	12	96	2
TAP	12	288	2
TAP	13	96	1
TAP	13	288	1
TAP	14	96	0
TAP	14	288	0
TAP	15	96	7
TAP	15	288	7
TAP	16	96	6
TAP	16	288	6
TAP	17	96	5
TAP	17	288	5
TAP	18	96	7
TAP	18	288	7
TAP	19	96	1
TAP	19	288	1
TAP	20	96	3
TAP	20	288	3
TAP	21	96	5
TAP	21	288	5
HLD	22	0	6	288
HLD	23	0	4	288
HLD	24	0	2	288
BRK	25	0	1
TAP	26	96	2
TAP	26	288	2
TAP	27	96	3
TAP	27	288	3
TAP	28	96	0
TAP	28	288	0
TAP	29	96	7
STR	29	288	7
SI_	29	288	7	96	192	3
HLD	30	336	2	288
HLD	31	336	1	240
HLD	33	0	2	144
TAP	33	240	3
HLD	33	336	4	336
TAP	35	96	3
TAP	35	288	3
TAP	36	96	2
TAP	36	288	2
TAP	37	96	1
TAP	37	288	1
HLD	38	0	0	288
HLD	39	0	7	288
STR	40	0	6
SI_	40	0	6	96	192	1
HLD	41	336	0	528
HLD	41	336	7	528
TAP	44	96	6
TAP	44	288	6
TAP	45	96	5
TAP	45	288	5
TAP	46	96	4
TAP	46	288	4
TAP	47	96	3
TAP	47	288	3
HLD	48	0	4	288
HLD	49	0	6	288
TAP	50	0	7
TAP	50	192	0
HLD	51	0	1	288
TAP	52	96	2
TAP	52	288	2
TAP	53	96	3
TAP	53	288	3
TAP	54	96	2
TAP	54	288	0
TAP	55	96	6
STR	55	288	4
SI_	55	288	4	96	192	0
HLD	57	0	0	288
TAP	58	0	0
TAP	58	144	7
HLD	58	288	6	288
BRK	60	0	7
HLD	60	336	0	96
TAP	61	144	1
TAP	61	240	1
HLD	61	335	2	529
TAP	64	96	0
TAP	64	288	7
TAP	65	96	6
STR	65	288	5
SI_	65	288	5	96	192	1
HLD	67	0	1	288
TAP	68	96	7
TAP	68	288	7
TAP	69	96	6
TAP	69	288	6
TAP	70	96	7
TAP	70	288	7
TAP	71	96	0
STR	71	288	1
SI_	71	288	1	96	192	5
HLD	73	0	4	288
TAP	74	0	5
TAP	74	144	6
HLD	74	288	7	192
TAP	75	192	1
TAP	75	336	0
HLD	76	96	7	384
STR	77	192	6
SI_	77	192	6	96	192	2
HLD	79	192	3	288
HLD	80	192	5	192
BRK	81	120	7

T_REC_TAP	84
T_REC_BRK	4
T_REC_XTP	0
T_REC_HLD	24
T_REC_XHO	0
T_REC_STR	7
T_REC_BST	0
T_REC_XST	0
T_REC_TTP	0
T_REC_THO	0
T_REC_SLD	7
T_REC_ALL	126
T_NUM_TAP	91
T_NUM_BRK	4
T_NUM_HLD	24
T_NUM_SLD	7
T_NUM_ALL	126
T_JUDGE_TAP	95
T_JUDGE_HLD	151
T_JUDGE_SLD	7
T_JUDGE_ALL	253
TTM_EACHPAIRS	1
TTM_SCR_TAP	45500
TTM_SCR_BRK	10400
TTM_SCR_HLD	24000
TTM_SCR_SLD	10500
TTM_SCR_ALL	90400
TTM_SCR_S	87300
TTM_SCR_SS	90000
TTM_RAT_ACV	10044

