VERSION	0.00.00	1.03.00
FES_MODE	0
BPM_DEF	200.000	200.000	200.000	200.000
MET_DEF	4	4
RESOLUTION	384
CLK_DEF	384
COMPATIBLE_CODE	MA2

BPM	0	0	200.000
MET	0	0	4	4

TAP	2	48	0
TAP	2	96	1
TAP	2	192	1
TAP	2	240	2
TAP	2	336	2
TAP	3	0	3
TAP	3	96	3
TAP	3	144	4
TAP	3	240	2
HLD	3	288	0	96
TAP	4	0	7
TAP	4	48	7
TAP	4	96	6
TAP	4	192	7
TAP	4	240	0
HLD	4	336	1	432
TAP	6	48	1
TAP	6	96	2
TAP	6	192	1
TAP	6	240	0
TAP	6	336	7
TAP	7	0	6
TAP	7	96	6
TAP	7	144	5
TAP	7	240	6
HLD	7	288	0	96
TAP	8	0	1
TAP	8	48	1
TAP	8	96	2
TAP	8	192	0
TAP	8	240	7
HLD	8	336	6	384
HLD	9	336	4	384
HLD	10	336	2	336
STR	12	0	1
SI_	12	0	1	96	48	5
HLD	12	144	0	144
TAP	12	288	7
STR	13	0	6
SI_	13	0	6	96	48	2
HLD	13	144	3	144
TAP	13	288	4
STR	14	0	5
SI_	14	0	5	96	48	1
HLD	14	144	0	144
TAP	14	288	7
STR	15	0	6
SI_	15	0	6	96	48	3
HLD	15	144	7	144
BRK	15	288	0
TAP	16	0	1
TAP	16	48	3
TAP	16	96	2
TAP	16	144	4
TAP	16	192	3
TAP	16	240	5
TAP	16	288	4
TAP	16	336	6
TAP	17	0	5
TAP	17	48	0
TAP	17	96	7
TAP	17	144	1
TAP	17	192	0
TAP	17	240	2
TAP	17	288	1
TAP	17	336	3
TAP	18	0	1
TAP	18	48	7
TAP	18	96	0
TAP	18	144	6
TAP	18	192	7
TAP	18	240	5
TAP	18	288	6
TAP	18	336	4
TAP	19	0	6
TAP	19	48	7
TAP	19	96	0
TAP	19	144	1
TAP	19	192	2
TAP	19	240	3
TAP	19	288	4
TAP	19	336	5
STR	20	0	5
SI_	20	0	5	96	48	1
STR	20	144	5
SI_	20	144	5	96	48	0
HLD	20	288	7	96
STR	21	0	6
SI_	21	0	6	96	48	2
STR	21	144	6
SI_	21	144	6	96	48	3
HLD	21	288	4	96
STR	22	0	5
SI_	22	0	5	96	48	1
STR	22	144	0
SI_	22	144	0	96	48	4
HLD	22	288	7	96
STR	23	0	6
SI_	23	0	6	96	48	1
STR	23	144	2
SI_	23	144	2	96	48	7
HLD	23	288	0	96
STR	24	0	1
SI_	24	0	1	96	48	5
STR	24	192	2
SI_	24	192	2	96	48	6
STR	25	0	3
SI_	25	0	3	96	48	7
STR	25	192	4
SI_	25	192	4	96	48	0
STR	26	0	1
SI_	26	0	1	96	48	5
STR	26	96	7
SI_	26	96	7	96	48	3
STR	26	192	5
SI_	26	192	5	96	48	1
STR	26	288	3
SI_	26	288	3	96	48	7
STR	27	0	6
SI_	27	0	6	96	48	2
STR	27	144	5
SI_	27	144	5	96	48	1
BRK	27	288	7
TAP	28	0	1
TAP	28	96	1
TAP	28	96	3
TAP	28	192	4
TAP	28	288	1
TAP	28	288	5
TAP	29	0	3
TAP	29	96	1
TAP	29	96	7
TAP	29	192	5
TAP	29	288	0
TAP	29	288	3
TAP	30	0	5
TAP	30	96	2
TAP	30	96	6
TAP	30	192	1
TAP	30	288	1
TAP	30	288	3
TAP	31	0	4
TAP	31	96	1
TAP	31	96	5
TAP	31	192	3
TAP	31	288	2
TAP	31	288	6
TAP	32	0	5
TAP	32	48	3
TAP	32	96	5
TAP	32	144	3
TAP	32	192	4
TAP	32	240	2
TAP	32	288	4
TAP	32	336	2
TAP	33	0	0
TAP	33	48	2
TAP	33	96	0
TAP	33	144	1
TAP	33	192	7
TAP	33	240	1
TAP	33	288	7
TAP	33	336	2
TAP	34	0	0
TAP	34	48	2
TAP	34	96	0
TAP	34	144	3
TAP	34	192	5
TAP	34	240	4
TAP	34	288	6
TAP	34	336	5
TAP	35	0	7
TAP	35	48	6
TAP	35	96	0
TAP	35	144	7
TAP	35	192	1
TAP	35	240	0
STR	35	288	0
SI_	35	288	0	96	48	3
TAP	36	96	5
HLD	36	144	1	144
STR	36	288	3
SI_	36	288	3	96	48	0
TAP	37	96	7
HLD	37	144	6	144
STR	37	288	5
SI_	37	288	5	96	48	2
STR	38	96	3
SI_	38	96	3	96	48	0
STR	38	288	7
SI_	38	288	7	96	48	3
STR	39	96	6
SI_	39	96	6	96	48	1
BRK	39	288	0
HLD	40	0	6	144
TAP	40	0	7
HLD	40	144	4	144
TAP	40	288	2
TAP	41	0	0
HLD	41	0	1	144
HLD	41	144	3	144
TAP	41	288	5
TAP	42	0	3
TAP	42	48	2
TAP	42	96	3
TAP	42	144	2
TAP	42	192	2
TAP	42	240	1
TAP	42	288	2
TAP	42	336	1
TAP	43	0	0
TAP	43	0	1
TAP	43	48	7
TAP	43	96	6
TAP	43	144	4
TAP	43	144	5
TAP	43	192	6
TAP	43	240	0
TAP	43	288	1
TAP	43	336	2
TAP	43	336	3
HLD	44	0	4	288
TAP	44	288	3
HLD	44	336	2	336
TAP	45	288	0
HLD	45	336	6	336
TAP	46	288	0
TAP	46	336	1
TAP	46	336	3
TAP	47	48	2
TAP	47	48	5
TAP	47	144	0
TAP	47	144	1
TAP	47	240	0
TAP	47	240	7
BRK	47	288	7
HLD	48	0	5	288
TAP	48	288	4
HLD	48	336	2	336
TAP	49	288	0
TAP	49	336	0
TAP	50	0	1
TAP	50	48	3
TAP	50	96	2
TAP	50	144	4
TAP	50	192	2
TAP	50	240	4
TAP	50	288	3
TAP	50	336	5
TAP	51	0	3
TAP	51	48	5
TAP	51	96	4
TAP	51	144	6
TAP	51	192	4
TAP	51	240	6
TAP	51	288	5
TAP	51	336	7
TAP	52	0	0
TAP	52	48	6
TAP	52	96	7
TAP	52	144	5
TAP	52	192	6
TAP	52	240	4
TAP	52	288	5
TAP	52	336	3
BRK	53	0	1
BRK	53	0	7
BRK	53	192	0
BRK	53	192	6
HLD	53	336	1	240
TAP	54	192	2
TAP	54	240	2
TAP	54	336	0
TAP	54	336	1
TAP	55	48	6
TAP	55	48	7
TAP	55	144	3
TAP	55	144	5
TAP	55	240	2
TAP	55	240	4
HLD	55	336	1	240
TAP	55	336	3
TAP	56	240	2
TAP	56	240	4
HLD	56	336	3	144
HLD	56	336	5	144
TAP	57	192	6
STR	57	240	6
SI_	57	240	6	96	48	2
HLD	58	96	7	96
TAP	58	192	0
TAP	58	240	0
TAP	58	336	6
TAP	58	336	7
TAP	59	48	4
TAP	59	48	5
TAP	59	144	2
TAP	59	144	3
STR	59	240	0
SI_	59	240	0	96	96	5
STR	59	240	1
SI_	59	240	1	96	96	4
BRK	60	240	6
BRK	60	240	7
BRK	60	336	2
BRK	60	336	3
STR	61	336	3
SI_	61	336	3	96	48	7
STR	62	192	0
SI_	62	192	0	96	48	5
TAP	62	240	0
STR	63	0	5
SI_	63	0	5	96	48	1
TAP	63	48	0
STR	63	192	1
SI_	63	192	1	96	48	6
TAP	63	240	0
STR	64	0	7
SI_	64	0	7	96	48	2
TAP	64	48	6
STR	64	192	2
SI_	64	192	2	96	48	6
TAP	64	240	6
STR	65	0	4
SI_	65	0	4	96	48	0
TAP	65	48	2
STR	65	192	0
SI_	65	192	0	96	48	4
TAP	65	240	6
STR	66	0	7
SI_	66	0	7	96	48	3
STR	66	96	0
SI_	66	96	0	96	48	4
STR	66	192	1
SI_	66	192	1	96	48	5
STR	66	288	2
SI_	66	288	2	96	48	6
STR	67	0	3
SI_	67	0	3	96	48	7
STR	67	96	4
SI_	67	96	4	96	48	1
STR	67	192	0
SI_	67	192	0	96	48	5
HLD	68	0	3	192
HLD	68	192	2	192
HLD	69	0	1	192
HLD	69	192	0	96
STR	69	336	6
SI_	69	336	6	96	48	3
STR	69	336	7
SI_	69	336	7	96	48	2
STR	70	192	0
SI_	70	192	0	96	48	5
TAP	70	192	2
TAP	70	240	0
TAP	71	0	4
STR	71	0	5
SI_	71	0	5	96	48	1
TAP	71	48	0
STR	71	192	1
SI_	71	192	1	96	48	6
TAP	71	192	6
TAP	71	240	0
TAP	72	0	3
STR	72	0	7
SI_	72	0	7	96	48	2
TAP	72	48	6
STR	72	192	2
SI_	72	192	2	96	48	6
TAP	72	192	4
TAP	72	240	6
STR	73	0	4
SI_	73	0	4	96	48	0
TAP	73	0	5
TAP	73	48	7
TAP	73	192	0
STR	73	240	0
SI_	73	240	0	96	48	3
HLD	74	96	0	96
TAP	74	192	3
TAP	74	240	0
TAP	74	336	2
TAP	74	336	4
TAP	75	48	1
TAP	75	48	5
TAP	75	144	0
TAP	75	144	4
STR	75	240	3
SCR	75	240	3	96	96	6
STR	75	240	7
SCR	75	240	7	96	96	2
BRK	76	240	1
BRK	76	240	5
BRK	76	336	0
BRK	76	336	4
STR	77	336	3
SI_	77	336	3	96	48	7
STR	78	192	0
SI_	78	192	0	96	48	5
TAP	78	240	0
STR	79	0	5
SI_	79	0	5	96	48	1
TAP	79	48	0
STR	79	192	1
SI_	79	192	1	96	48	6
TAP	79	240	0
STR	80	0	7
SI_	80	0	7	96	48	2
TAP	80	48	6
STR	80	192	2
SI_	80	192	2	96	48	6
TAP	80	240	6
STR	81	0	4
SI_	81	0	4	96	48	0
TAP	81	48	2
STR	81	192	0
SI_	81	192	0	96	48	4
TAP	81	240	6
STR	82	0	7
SI_	82	0	7	96	48	3
STR	82	96	0
SI_	82	96	0	96	48	4
STR	82	192	1
SI_	82	192	1	96	48	5
STR	82	288	2
SI_	82	288	2	96	48	6
STR	83	0	3
SI_	83	0	3	96	48	7
STR	83	96	4
SI_	83	96	4	96	48	1
STR	83	192	0
SI_	83	192	0	96	48	5
HLD	84	0	3	192
HLD	84	192	2	192
HLD	85	0	1	192
HLD	85	192	0	144
STR	85	336	7
SI_	85	336	7	96	192	4
TAP	88	0	3
TAP	88	0	7
BRK	88	48	2
BRK	88	48	5
BRK	88	144	1
BRK	88	144	4
BRK	88	240	5
BRK	88	240	7
BRK	88	336	0
BRK	88	336	3

T_REC_TAP	239
T_REC_BRK	24
T_REC_XTP	0
T_REC_HLD	39
T_REC_XHO	0
T_REC_STR	73
T_REC_BST	0
T_REC_XST	0
T_REC_TTP	0
T_REC_THO	0
T_REC_SLD	73
T_REC_ALL	448
T_NUM_TAP	312
T_NUM_BRK	24
T_NUM_HLD	39
T_NUM_SLD	73
T_NUM_ALL	448
T_JUDGE_TAP	336
T_JUDGE_HLD	156
T_JUDGE_SLD	73
T_JUDGE_ALL	565
TTM_EACHPAIRS	50
TTM_SCR_TAP	156000
TTM_SCR_BRK	62400
TTM_SCR_HLD	39000
TTM_SCR_SLD	109500
TTM_SCR_ALL	366900
TTM_SCR_S	353600
TTM_SCR_SS	364500
TTM_RAT_ACV	10065

