VERSION	0.00.00	1.03.00
FES_MODE	0
BPM_DEF	200.000	200.000	200.000	200.000
MET_DEF	4	4
RESOLUTION	384
CLK_DEF	384
COMPATIBLE_CODE	MA2

BPM	0	0	200.000
MET	0	0	4	4

TAP	2	48	0
TAP	2	96	1
TAP	2	192	7
TAP	2	240	6
TAP	2	336	2
TAP	3	0	3
TAP	3	96	5
TAP	3	144	4
TAP	3	240	0
TAP	3	288	7
TAP	4	0	3
TAP	4	48	4
TAP	4	96	3
TAP	4	192	6
TAP	4	240	7
HLD	4	336	0	360
TAP	5	312	1
TAP	6	48	6
TAP	6	96	5
TAP	6	192	4
TAP	6	240	3
TAP	6	336	2
TAP	7	0	1
TAP	7	96	7
TAP	7	144	0
TAP	7	240	4
TAP	7	288	3
TAP	8	0	6
TAP	8	48	6
TAP	8	96	5
TAP	8	192	5
TAP	8	240	4
HLD	8	336	3	384
HLD	9	336	2	384
HLD	10	337	1	336
TAP	12	0	1
TAP	12	96	0
TAP	12	96	2
TAP	12	192	0
TAP	12	288	1
TAP	12	288	7
TAP	13	0	6
TAP	13	96	5
TAP	13	96	7
TAP	13	192	7
TAP	13	288	0
TAP	13	288	6
TAP	14	0	2
TAP	14	96	1
TAP	14	96	3
TAP	14	192	5
TAP	14	288	4
TAP	14	288	6
HLD	15	0	2	144
HLD	15	144	5	144
TAP	15	288	3
TAP	16	0	1
TAP	16	96	0
TAP	16	96	1
TAP	16	192	2
TAP	16	288	2
TAP	16	288	3
TAP	17	0	4
TAP	17	96	4
TAP	17	96	5
TAP	17	192	7
TAP	17	288	6
TAP	17	288	7
TAP	18	0	0
TAP	18	96	0
TAP	18	96	7
TAP	18	192	6
STR	18	288	0
SI_	18	288	0	96	288	4
STR	18	288	7
SI_	18	288	7	96	288	3
TAP	20	0	2
TAP	20	96	1
TAP	20	96	3
TAP	20	192	6
TAP	20	288	5
TAP	20	288	7
TAP	21	0	4
TAP	21	96	3
TAP	21	96	5
TAP	21	192	0
TAP	21	288	1
TAP	21	288	7
TAP	22	0	7
TAP	22	96	0
TAP	22	96	6
TAP	22	192	0
TAP	22	192	7
TAP	22	288	1
TAP	22	288	6
HLD	23	0	2	288
HLD	24	0	1	144
HLD	24	144	0	144
TAP	24	288	2
HLD	25	0	3	144
HLD	25	144	4	144
TAP	25	288	5
HLD	26	0	2	672
HLD	27	0	0	288
HLD	28	0	7	144
HLD	28	144	5	144
TAP	28	288	3
HLD	29	0	2	144
TAP	29	144	4
TAP	29	192	3
TAP	29	240	4
TAP	29	288	3
HLD	29	336	5	336
HLD	31	0	2	144
HLD	31	144	1	144
TAP	31	288	0
HLD	32	0	6	144
HLD	32	144	5	144
TAP	32	288	4
HLD	33	0	1	144
HLD	33	144	2	144
TAP	33	288	3
HLD	34	0	7	144
HLD	34	144	0	144
HLD	34	288	1	96
HLD	35	0	2	288
HLD	36	0	6	144
HLD	36	144	5	144
TAP	36	288	4
HLD	37	0	1	144
HLD	37	144	2	144
HLD	37	288	3	96
HLD	38	0	4	192
TAP	38	240	1
TAP	38	336	0
HLD	39	0	7	192
TAP	39	288	6
HLD	40	0	6	144
HLD	40	144	1	144
TAP	40	288	2
HLD	41	0	3	144
HLD	41	144	5	144
HLD	41	288	7	480
HLD	43	0	1	288
TAP	44	0	6
TAP	44	48	7
TAP	44	96	6
TAP	44	144	7
TAP	44	192	6
TAP	44	240	7
TAP	44	288	6
TAP	44	336	1
TAP	45	0	6
TAP	45	48	1
TAP	45	96	6
TAP	45	144	1
TAP	45	192	6
TAP	45	240	1
TAP	45	288	6
TAP	45	336	1
TAP	46	0	4
TAP	46	48	1
TAP	46	96	4
TAP	46	144	1
TAP	46	192	4
TAP	46	240	1
TAP	46	288	4
TAP	46	336	0
TAP	46	336	2
TAP	47	48	4
TAP	47	48	5
TAP	47	144	0
TAP	47	144	7
BRK	47	240	2
BRK	47	240	3
TAP	48	0	1
TAP	48	48	7
TAP	48	96	1
TAP	48	144	7
TAP	48	192	1
TAP	48	240	7
TAP	48	288	1
TAP	48	336	7
TAP	49	0	6
TAP	49	48	7
TAP	49	96	6
TAP	49	144	7
TAP	49	192	6
TAP	49	240	7
TAP	49	288	6
TAP	49	336	4
TAP	50	0	6
TAP	50	48	4
TAP	50	96	6
TAP	50	144	4
TAP	50	192	6
TAP	50	240	4
TAP	50	288	6
TAP	50	336	4
TAP	51	0	2
TAP	51	48	4
TAP	51	96	2
TAP	51	144	4
TAP	51	192	2
TAP	51	240	4
TAP	51	288	2
TAP	51	336	0
TAP	52	0	2
TAP	52	48	0
TAP	52	96	2
TAP	52	144	0
TAP	52	192	2
TAP	52	240	0
TAP	52	288	2
TAP	52	336	0
HLD	53	0	1	192
HLD	53	192	7	144
BRK	53	336	0
TAP	54	192	7
TAP	54	240	0
HLD	54	336	1	96
HLD	55	48	3	96
HLD	55	144	5	96
HLD	55	240	7	96
HLD	55	336	5	432
STR	56	240	7
SCR	56	240	7	96	144	2
TAP	57	192	3
TAP	57	240	4
TAP	57	336	1
TAP	57	336	6
TAP	58	192	4
TAP	58	240	6
TAP	58	336	0
TAP	58	336	4
TAP	59	48	2
TAP	59	48	6
TAP	59	144	3
TAP	59	144	7
TAP	59	240	1
TAP	59	240	5
TAP	60	0	3
TAP	60	48	4
TAP	60	144	0
TAP	60	144	1
TAP	60	240	5
TAP	60	240	6
BRK	60	336	2
BRK	60	336	3
TAP	61	354	1
TAP	61	354	6
TAP	62	192	0
TAP	62	240	7
STR	62	336	0
SI_	62	336	0	96	48	4
STR	63	48	7
SI_	63	48	7	96	48	3
STR	63	144	1
SI_	63	144	1	96	48	5
STR	63	240	6
SI_	63	240	6	96	48	2
HLD	63	336	1	336
TAP	64	288	2
HLD	64	336	2	240
TAP	65	192	4
TAP	65	288	5
STR	66	0	5
SCL	66	0	5	96	48	2
STR	66	192	1
SCL	66	192	1	96	48	6
TAP	67	0	2
TAP	67	0	6
TAP	67	144	1
TAP	67	144	5
TAP	67	240	0
TAP	67	240	4
HLD	67	336	3	144
HLD	67	336	7	144
HLD	68	192	1	192
TAP	68	288	2
HLD	69	0	2	192
TAP	69	96	3
HLD	69	192	3	96
BRK	69	336	4
BRK	69	336	5
TAP	70	192	0
TAP	70	240	7
HLD	70	336	6	96
HLD	71	48	4	96
HLD	71	144	2	96
HLD	71	240	0	96
HLD	71	336	2	432
STR	72	240	1
SCL	72	240	1	96	144	6
TAP	73	192	5
TAP	73	240	4
TAP	73	336	4
TAP	73	336	5
TAP	74	192	1
TAP	74	240	0
TAP	74	336	0
TAP	74	336	1
TAP	75	48	4
TAP	75	48	6
TAP	75	144	2
TAP	75	144	3
TAP	75	240	0
TAP	75	240	6
TAP	76	0	3
TAP	76	48	4
TAP	76	144	3
TAP	76	144	4
TAP	76	240	5
TAP	76	240	6
BRK	76	336	0
BRK	76	336	1
TAP	77	354	0
TAP	78	192	2
TAP	78	240	1
STR	78	336	0
SI_	78	336	0	96	48	4
STR	79	48	7
SI_	79	48	7	96	48	3
STR	79	144	6
SI_	79	144	6	96	48	2
STR	79	240	5
SI_	79	240	5	96	48	1
HLD	79	336	0	336
TAP	80	288	1
HLD	80	336	1	240
TAP	81	192	2
TAP	81	288	3
STR	82	0	4
SCL	82	0	4	96	48	1
STR	82	192	0
SCL	82	192	0	96	48	5
TAP	83	0	0
TAP	83	0	4
TAP	83	144	3
TAP	83	144	7
TAP	83	240	2
TAP	83	240	6
HLD	83	336	1	144
HLD	83	336	5	144
HLD	84	192	4	192
TAP	84	288	3
HLD	85	0	3	192
TAP	85	96	2
HLD	85	192	2	96
HLD	85	336	0	624
HLD	85	336	1	624
TAP	88	0	1
TAP	88	0	5
TAP	88	48	3
TAP	88	48	7
TAP	88	144	0
TAP	88	144	4
TAP	88	240	2
TAP	88	240	6
TAP	88	336	1
TAP	88	336	5
BRK	89	0	4
BRK	89	0	7

T_REC_TAP	252
T_REC_BRK	11
T_REC_XTP	0
T_REC_HLD	68
T_REC_XHO	0
T_REC_STR	16
T_REC_BST	0
T_REC_XST	0
T_REC_TTP	0
T_REC_THO	0
T_REC_SLD	16
T_REC_ALL	363
T_NUM_TAP	268
T_NUM_BRK	11
T_NUM_HLD	68
T_NUM_SLD	16
T_NUM_ALL	363
T_JUDGE_TAP	279
T_JUDGE_HLD	296
T_JUDGE_SLD	16
T_JUDGE_ALL	591
TTM_EACHPAIRS	56
TTM_SCR_TAP	134000
TTM_SCR_BRK	28600
TTM_SCR_HLD	68000
TTM_SCR_SLD	24000
TTM_SCR_ALL	254600
TTM_SCR_S	245900
TTM_SCR_SS	253500
TTM_RAT_ACV	10043

