VERSION	0.00.00	1.03.00
FES_MODE	0
BPM_DEF	200.000	200.000	200.000	200.000
MET_DEF	4	4
RESOLUTION	384
CLK_DEF	384
COMPATIBLE_CODE	MA2

BPM	0	0	200.000
MET	0	0	4	4

HLD	4	336	0	384
STR	5	336	2
SI_	5	336	2	96	96	6
HLD	8	336	4	384
HLD	9	336	2	384
BRK	10	336	0
HLD	12	0	7	144
HLD	12	144	6	144
TAP	12	288	5
HLD	13	0	7	144
HLD	13	144	0	144
TAP	13	288	1
TAP	14	0	0
TAP	14	96	0
TAP	14	192	7
TAP	14	288	7
TAP	15	0	6
TAP	15	96	6
TAP	15	192	5
TAP	15	288	5
HLD	16	0	0	144
HLD	16	144	1	144
TAP	16	288	2
TAP	17	0	0
HLD	17	144	7	240
HLD	18	0	6	144
HLD	18	144	4	144
STR	18	288	2
SI_	18	288	2	96	192	7
HLD	20	0	7	144
HLD	20	144	6	144
TAP	20	288	5
HLD	21	0	7	144
HLD	21	144	0	144
TAP	21	288	1
HLD	22	0	2	384
HLD	23	0	4	288
HLD	24	0	5	144
HLD	24	144	3	144
TAP	24	288	2
HLD	25	0	1	144
HLD	25	144	3	144
TAP	25	288	4
TAP	26	0	3
TAP	26	96	3
TAP	26	192	1
TAP	26	288	1
TAP	27	0	7
TAP	27	96	7
TAP	27	192	5
TAP	27	288	5
HLD	28	0	7	144
HLD	28	144	0	144
TAP	28	288	1
HLD	29	0	2	384
TAP	30	0	3
TAP	30	96	3
TAP	30	192	4
TAP	30	288	4
TAP	31	0	3
TAP	31	96	3
TAP	31	192	1
TAP	31	288	1
HLD	32	0	7	144
HLD	32	144	6	144
TAP	32	288	5
HLD	33	0	7	144
HLD	33	144	0	240
HLD	34	0	1	144
HLD	34	144	3	144
TAP	34	288	4
HLD	35	0	5	286
TAP	36	0	7
TAP	36	96	7
TAP	36	192	0
TAP	36	288	0
TAP	37	0	1
TAP	37	96	1
TAP	37	192	2
TAP	37	288	2
TAP	38	0	0
TAP	38	96	0
TAP	38	192	7
TAP	38	288	7
TAP	39	0	6
TAP	39	96	6
TAP	39	192	5
TAP	39	288	5
HLD	40	0	4	144
HLD	40	144	3	240
TAP	40	288	2
HLD	41	0	4	144
HLD	41	144	5	144
TAP	41	288	6
STR	42	0	7
SI_	42	0	7	96	192	4
TAP	44	96	1
TAP	44	288	2
TAP	45	96	1
TAP	45	288	2
TAP	46	96	1
TAP	46	288	0
TAP	47	96	6
TAP	47	96	7
BRK	47	288	6
BRK	47	288	7
TAP	48	96	5
TAP	48	288	4
TAP	49	96	5
TAP	49	288	4
TAP	50	96	5
TAP	50	288	6
TAP	51	96	7
TAP	51	288	0
TAP	52	96	1
TAP	52	288	0
HLD	53	0	0	192
HLD	53	192	7	144
BRK	53	336	6
HLD	54	192	0	144
TAP	54	336	1
TAP	55	48	1
TAP	55	144	2
TAP	55	240	3
HLD	55	336	4	288
TAP	56	240	5
HLD	56	336	6	288
TAP	57	240	7
HLD	57	336	0	240
HLD	58	192	1	144
TAP	58	336	2
TAP	59	48	3
TAP	59	144	2
TAP	59	240	1
HLD	59	336	0	288
STR	60	240	7
SI_	60	240	7	96	96	3
HLD	61	336	4	384
TAP	62	336	5
TAP	63	48	5
TAP	63	144	4
TAP	63	240	3
HLD	63	336	2	288
TAP	64	240	1
HLD	64	336	0	240
TAP	65	192	7
TAP	65	288	6
HLD	66	0	5	192
HLD	66	192	3	192
HLD	67	0	1	144
TAP	67	144	0
TAP	67	240	7
HLD	67	336	6	240
HLD	68	192	5	192
HLD	69	0	7	192
HLD	69	192	0	192
TAP	70	0	1
TAP	70	96	1
TAP	70	192	2
TAP	70	288	2
TAP	71	0	1
TAP	71	96	1
TAP	71	192	0
TAP	71	288	0
TAP	72	0	7
TAP	72	96	7
TAP	72	192	6
TAP	72	288	6
TAP	73	0	5
TAP	73	96	5
TAP	73	192	4
TAP	73	288	4
HLD	74	0	3	336
TAP	74	336	4
TAP	75	48	5
TAP	75	144	6
TAP	75	240	7
HLD	75	336	0	288
TAP	76	240	1
HLD	76	336	3	336
TAP	78	0	2
TAP	78	96	2
TAP	78	192	0
TAP	78	288	0
TAP	79	0	6
TAP	79	96	6
TAP	79	192	4
TAP	79	288	4
TAP	80	0	5
TAP	80	96	5
TAP	80	192	7
TAP	80	288	7
TAP	81	0	1
TAP	81	96	1
TAP	81	192	3
TAP	81	288	3
HLD	82	0	0	192
HLD	82	192	7	192
HLD	83	0	6	144
TAP	83	144	5
TAP	83	240	5
HLD	83	336	7	240
HLD	84	192	0	192
HLD	85	0	1	192
HLD	85	192	2	144
STR	85	336	3
SI_	85	336	3	96	96	7
TAP	88	0	0
TAP	88	0	7
TAP	88	48	0
TAP	88	48	7
TAP	88	144	0
TAP	88	144	7
STR	88	240	0
SI_	88	240	0	96	144	3
STR	88	240	7
SI_	88	240	7	96	144	4

T_REC_TAP	135
T_REC_BRK	4
T_REC_XTP	0
T_REC_HLD	64
T_REC_XHO	0
T_REC_STR	7
T_REC_BST	0
T_REC_XST	0
T_REC_TTP	0
T_REC_THO	0
T_REC_SLD	7
T_REC_ALL	217
T_NUM_TAP	142
T_NUM_BRK	4
T_NUM_HLD	64
T_NUM_SLD	7
T_NUM_ALL	217
T_JUDGE_TAP	146
T_JUDGE_HLD	275
T_JUDGE_SLD	7
T_JUDGE_ALL	428
TTM_EACHPAIRS	6
TTM_SCR_TAP	71000
TTM_SCR_BRK	10400
TTM_SCR_HLD	64000
TTM_SCR_SLD	10500
TTM_SCR_ALL	155900
TTM_SCR_S	150850
TTM_SCR_SS	155500
TTM_RAT_ACV	10025

