VERSION	0.00.00	1.03.00
FES_MODE	0
BPM_DEF	200.000	200.000	200.000	200.000
MET_DEF	4	4
RESOLUTION	384
CLK_DEF	384
COMPATIBLE_CODE	MA2

BPM	0	0	200.000
MET	0	0	4	4

TAP	12	96	1
TAP	12	288	2
TAP	13	96	1
TAP	13	288	0
TAP	14	96	7
TAP	14	288	7
TAP	15	96	6
TAP	15	288	6
HLD	16	0	5	288
HLD	17	0	4	288
HLD	18	0	5	288
HLD	19	0	7	288
TAP	20	96	0
TAP	20	288	0
TAP	21	96	1
TAP	21	288	1
TAP	22	96	7
TAP	22	288	7
TAP	23	96	6
TAP	23	288	6
STR	24	0	5
SI_	24	0	5	96	192	2
STR	26	0	1
SI_	26	0	1	96	192	6
TAP	28	96	6
TAP	28	288	6
TAP	29	96	4
TAP	29	288	4
TAP	30	96	2
TAP	30	288	2
TAP	31	96	0
TAP	31	288	0
HLD	32	0	7	288
HLD	33	0	6	288
HLD	34	0	7	288
HLD	35	0	0	288
TAP	36	96	1
TAP	36	288	2
TAP	37	96	1
TAP	37	288	0
TAP	38	96	7
TAP	38	288	6
TAP	39	96	5
TAP	39	288	4
STR	40	0	3
SI_	40	0	3	96	192	0
STR	42	0	7
SI_	42	0	7	96	192	4
BRK	43	288	0
TAP	44	0	0
TAP	44	336	1
TAP	45	336	2
HLD	46	336	1	336
TAP	48	0	0
TAP	48	336	7
STR	49	336	6
SI_	49	336	6	96	288	2
HLD	51	336	0	336
BRK	53	0	0
TAP	54	96	1
TAP	54	288	1
TAP	55	96	2
TAP	55	288	2
TAP	56	96	1
TAP	56	288	1
TAP	57	96	0
TAP	57	288	0
TAP	58	96	7
TAP	58	288	7
TAP	59	96	6
TAP	59	288	6
HLD	60	0	7	240
BRK	60	336	7
TAP	62	96	0
TAP	62	288	0
TAP	63	96	2
TAP	63	288	2
TAP	64	96	4
TAP	64	288	4
TAP	65	96	6
TAP	65	288	6
HLD	66	0	0	288
HLD	67	0	1	288
HLD	68	0	0	288
HLD	69	0	7	240
BRK	69	336	7
TAP	70	96	6
TAP	70	288	6
TAP	71	96	5
TAP	71	288	5
TAP	72	96	4
TAP	72	288	4
TAP	73	96	3
TAP	73	288	3
TAP	74	96	4
TAP	74	288	4
TAP	75	96	6
TAP	75	288	6
HLD	76	0	0	240
BRK	76	336	0
HLD	77	336	1	144
TAP	78	288	1
TAP	79	96	2
TAP	79	288	2
TAP	80	96	1
TAP	80	288	1
TAP	81	96	0
TAP	81	288	0
HLD	82	0	7	288
HLD	83	0	6	288
HLD	84	0	5	288
HLD	85	0	4	240
STR	85	336	3
SI_	85	336	3	96	192	7
HLD	88	0	0	672

T_REC_TAP	76
T_REC_BRK	5
T_REC_XTP	0
T_REC_HLD	22
T_REC_XHO	0
T_REC_STR	6
T_REC_BST	0
T_REC_XST	0
T_REC_TTP	0
T_REC_THO	0
T_REC_SLD	6
T_REC_ALL	115
T_NUM_TAP	82
T_NUM_BRK	5
T_NUM_HLD	22
T_NUM_SLD	6
T_NUM_ALL	115
T_JUDGE_TAP	87
T_JUDGE_HLD	135
T_JUDGE_SLD	6
T_JUDGE_ALL	228
TTM_EACHPAIRS	0
TTM_SCR_TAP	41000
TTM_SCR_BRK	13000
TTM_SCR_HLD	22000
TTM_SCR_SLD	9000
TTM_SCR_ALL	85000
TTM_SCR_S	82000
TTM_SCR_SS	84500
TTM_RAT_ACV	10059

