VERSION	0.00.00	1.03.00
FES_MODE	0
BPM_DEF	130.000	130.000	130.000	130.000
MET_DEF	4	4
RESOLUTION	384
CLK_DEF	384
COMPATIBLE_CODE	MA2

BPM	0	0	130.000
MET	0	0	4	4

TAP	2	48	7
TAP	2	72	0
STR	2	96	1
SI_	2	96	1	96	48	6
TAP	3	48	7
TAP	3	72	6
STR	3	96	5
SI_	3	96	5	96	48	2
TAP	4	0	0
TAP	4	0	7
TAP	4	96	3
TAP	4	96	4
TAP	4	192	0
TAP	4	192	6
TAP	4	256	3
TAP	4	256	7
TAP	4	320	1
TAP	4	320	4
TAP	5	0	2
TAP	5	0	6
TAP	5	64	0
TAP	5	64	5
TAP	5	128	1
TAP	5	128	3
STR	5	192	4
SI_	5	192	4	96	192	1
STR	5	192	5
SI_	5	192	5	96	192	0
TAP	6	240	2
TAP	6	256	3
TAP	6	272	4
TAP	6	288	5
TAP	7	0	2
TAP	7	48	3
TAP	7	48	5
TAP	7	96	1
TAP	7	96	4
TAP	7	192	2
TAP	7	192	3
TAP	7	264	4
TAP	7	264	5
TAP	7	336	2
TAP	7	336	3
TAP	8	0	5
TAP	8	48	2
TAP	8	48	4
TAP	8	96	3
TAP	8	96	6
TAP	8	192	4
TAP	8	192	5
TAP	8	264	2
TAP	8	264	3
TAP	8	336	4
TAP	8	336	5
TAP	9	48	2
TAP	9	48	3
TAP	9	96	5
TAP	9	120	6
STR	9	144	7
SCR	9	144	7	96	48	2
TAP	9	192	3
TAP	9	264	5
TAP	9	336	3
TAP	10	0	4
TAP	10	0	5
TAP	10	48	2
TAP	10	96	1
TAP	10	96	4
TAP	10	192	3
TAP	10	192	5
TAP	10	264	2
TAP	10	264	4
TAP	10	336	5
TAP	10	360	4
HLD	11	0	3	192
STR	11	96	0
SI_	11	96	0	96	48	4
TAP	11	288	2
TAP	11	336	3
HLD	12	0	4	192
STR	12	96	7
SI_	12	96	7	96	48	3
TAP	12	336	6
TAP	12	360	7
HLD	13	0	0	192
TAP	13	48	1
TAP	13	96	2
TAP	13	144	3
HLD	13	192	7	192
TAP	13	240	6
TAP	13	288	5
TAP	13	336	4
HLD	14	0	0	192
TAP	14	336	1
TAP	14	336	3
TAP	14	360	2
STR	15	0	1
SI_	15	0	1	96	48	4
TAP	15	0	3
TAP	15	288	4
TAP	15	288	6
TAP	15	336	5
TAP	16	0	4
STR	16	0	6
SI_	16	0	6	96	48	3
TAP	16	288	1
TAP	16	336	0
HLD	17	0	7	192
TAP	17	72	6
TAP	17	144	5
HLD	17	192	0	192
TAP	17	264	1
TAP	17	336	2
HLD	18	0	6	192
TAP	18	72	7
TAP	18	144	0
HLD	18	192	1	144
TAP	18	264	0
TAP	18	336	7
HLD	19	0	0	96
HLD	19	0	4	96
TAP	19	144	3
TAP	19	144	7
TAP	19	168	0
TAP	19	168	4
TAP	19	192	1
TAP	19	192	5
TAP	19	288	3
HLD	19	288	4	96
HLD	20	0	6	288
TAP	20	96	4
HLD	20	192	1	96
TAP	20	336	7
TAP	20	360	6
TAP	21	0	5
TAP	21	72	4
TAP	21	144	7
TAP	21	168	0
TAP	21	192	1
TAP	21	264	2
STR	21	336	3
SI_	21	336	3	96	48	7
HLD	22	0	3	288
STR	22	144	0
SI_	22	144	0	96	48	4
TAP	22	192	0
HLD	23	0	0	96
HLD	23	0	2	96
TAP	23	144	0
TAP	23	144	2
TAP	23	168	1
TAP	23	168	7
TAP	23	192	0
TAP	23	192	6
TAP	23	336	5
TAP	23	336	7
HLD	24	0	5	96
HLD	24	0	7	96
TAP	24	144	5
TAP	24	144	7
TAP	24	168	0
TAP	24	168	6
TAP	24	192	1
TAP	24	192	7
TAP	24	336	2
TAP	24	360	1
TAP	25	0	0
TAP	25	72	0
TAP	25	144	5
TAP	25	168	6
TAP	25	192	7
TAP	25	264	7
STR	25	336	4
SI_	25	336	4	96	336	7
TAP	26	0	4
STR	26	144	3
SI_	26	144	3	96	336	0
TAP	26	192	3
STR	28	0	0
SI_	28	0	0	96	48	4
STR	28	0	6
SI_	28	0	6	96	48	2
STR	28	192	1
SCR	28	192	1	96	48	4
STR	28	192	7
SCL	28	192	7	96	48	4
STR	29	0	0
SI_	29	0	0	96	96	4
STR	29	0	7
SI_	29	0	7	96	96	3
TAP	29	336	7
TAP	29	360	0
STR	30	0	1
SI_	30	0	1	96	48	5
TAP	30	144	0
TAP	30	168	7
STR	30	192	6
SI_	30	192	6	96	48	2
TAP	30	336	7
TAP	30	360	0
STR	31	0	1
SCL	31	0	1	96	96	6
TAP	31	312	5
TAP	31	336	6
TAP	31	360	7
HLD	32	0	0	192
TAP	32	72	1
TAP	32	144	2
HLD	32	192	7	192
TAP	32	264	6
TAP	32	336	5
HLD	33	0	0	480
TAP	33	288	3
TAP	33	336	2
STR	34	0	1
SI_	34	0	1	96	96	6
TAP	34	144	0
STR	34	192	0
SI_	34	192	0	96	96	3
STR	35	0	2
SI_	35	0	2	96	24	7
STR	35	96	5
SI_	35	96	5	96	24	0
STR	35	192	1
SI_	35	192	1	96	24	4
STR	35	288	6
SI_	35	288	6	96	24	3
STR	36	0	0
SI_	36	0	0	96	48	4
TAP	36	72	1
TAP	36	144	2
STR	36	192	7
SI_	36	192	7	96	48	3
TAP	36	264	6
TAP	36	336	5
HLD	37	0	4	192
TAP	37	96	6
TAP	37	192	2
TAP	37	240	2
TAP	37	288	1
TAP	37	336	0
STR	38	0	7
SI_	38	0	7	96	48	4
HLD	38	96	6	96
STR	38	192	0
SI_	38	192	0	96	48	3
HLD	38	288	1	96
STR	39	0	7
SI_	39	0	7	96	96	4
TAP	40	0	2
TAP	40	0	3
TAP	40	72	0
TAP	40	72	7
TAP	40	144	4
TAP	40	144	5
TAP	40	192	1
TAP	40	192	2
TAP	40	288	5
TAP	40	288	6
TAP	41	0	3
TAP	41	0	4
TAP	41	48	3
TAP	41	48	4
TAP	41	96	2
TAP	41	96	5
TAP	41	144	1
TAP	41	144	6
BRK	41	192	0
BRK	41	192	7
TAP	41	336	1
TAP	41	336	6
TAP	41	360	2
TAP	41	360	5
BRK	42	0	3
BRK	42	0	4
BRK	42	48	3
BRK	42	48	4
BRK	42	96	3
BRK	42	96	4
STR	42	192	5
SI_	42	192	5	96	48	1
STR	42	288	2
SI_	42	288	2	96	48	6
STR	43	0	3
SI_	43	0	3	96	96	0
TAP	43	336	2
TAP	43	336	5
TAP	43	360	1
TAP	43	360	6
BRK	44	0	0
BRK	44	0	7
BRK	44	48	0
BRK	44	48	7
BRK	44	96	0
BRK	44	96	7
STR	44	192	0
SI_	44	192	0	96	48	5
STR	44	288	1
SI_	44	288	1	96	48	4
STR	45	0	7
SI_	45	0	7	96	48	2
STR	45	96	6
SI_	45	96	6	96	48	3
STR	45	192	4
SI_	45	192	4	96	384	7
HLD	47	0	0	864
STR	47	144	7
SCL	47	144	7	96	528	4
TAP	47	192	7
TAP	49	240	7
TAP	49	264	0
STR	49	288	1
SI_	49	288	1	96	48	6
TAP	50	240	7
TAP	50	264	6
STR	50	288	5
SI_	50	288	5	96	48	2
TAP	51	192	0
TAP	51	192	7
TAP	51	288	3
TAP	51	288	4
TAP	52	0	0
TAP	52	0	6
TAP	52	72	3
TAP	52	72	7
TAP	52	136	1
TAP	52	136	4
TAP	52	200	2
TAP	52	200	6
TAP	52	264	0
TAP	52	264	5
TAP	52	328	1
TAP	52	328	3
HLD	53	0	4	96
HLD	53	0	5	96
TAP	53	144	0
TAP	53	144	7
TAP	53	192	1
TAP	53	192	2
TAP	53	256	5
TAP	53	256	6
STR	53	336	2
SI_	53	336	2	96	912	7
STR	53	336	3
SI_	53	336	3	96	912	6

T_REC_TAP	211
T_REC_BRK	14
T_REC_XTP	0
T_REC_HLD	28
T_REC_XHO	0
T_REC_STR	46
T_REC_BST	0
T_REC_XST	0
T_REC_TTP	0
T_REC_THO	0
T_REC_SLD	46
T_REC_ALL	345
T_NUM_TAP	257
T_NUM_BRK	14
T_NUM_HLD	28
T_NUM_SLD	46
T_NUM_ALL	345
T_JUDGE_TAP	271
T_JUDGE_HLD	111
T_JUDGE_SLD	46
T_JUDGE_ALL	428
TTM_EACHPAIRS	78
TTM_SCR_TAP	128500
TTM_SCR_BRK	36400
TTM_SCR_HLD	28000
TTM_SCR_SLD	69000
TTM_SCR_ALL	261900
TTM_SCR_S	252700
TTM_SCR_SS	260500
TTM_RAT_ACV	10053

