VERSION	0.00.00	1.03.00
FES_MODE	0
BPM_DEF	130.000	130.000	130.000	130.000
MET_DEF	4	4
RESOLUTION	384
CLK_DEF	384
COMPATIBLE_CODE	MA2

BPM	0	0	130.000
MET	0	0	4	4

STR	2	0	7
SI_	2	0	7	96	48	3
HLD	2	192	0	72
HLD	2	264	1	120
STR	3	0	2
SI_	3	0	2	96	48	6
HLD	3	192	7	72
HLD	3	264	0	120
STR	4	0	1
SI_	4	0	1	96	48	5
HLD	4	192	7	72
HLD	4	264	5	72
HLD	4	336	3	48
HLD	5	0	4	72
HLD	5	72	6	408
TAP	5	128	7
HLD	5	192	0	288
STR	7	48	3
SI_	7	48	3	96	48	7
HLD	8	0	7	288
TAP	9	0	7
TAP	9	48	6
TAP	9	96	7
TAP	9	120	0
BRK	9	144	1
HLD	11	0	1	96
TAP	11	96	5
TAP	11	144	6
TAP	11	168	5
HLD	12	0	3	96
TAP	12	96	7
TAP	12	144	6
TAP	12	168	7
TAP	13	0	0
TAP	13	48	1
TAP	13	96	2
TAP	13	144	3
TAP	13	192	4
TAP	13	240	5
TAP	13	288	6
TAP	13	336	7
HLD	14	0	0	288
HLD	15	0	1	96
TAP	15	96	2
TAP	15	144	1
TAP	15	168	0
HLD	16	0	7	96
TAP	16	96	6
TAP	16	144	7
TAP	16	168	0
TAP	16	288	1
TAP	16	336	2
HLD	17	0	1	72
HLD	17	72	0	72
TAP	17	144	7
HLD	17	192	6	480
HLD	19	0	0	144
TAP	19	144	2
HLD	19	192	3	144
TAP	19	336	4
HLD	20	0	6	144
TAP	20	144	7
HLD	20	192	1	144
TAP	20	336	2
TAP	21	0	3
TAP	21	72	1
TAP	21	144	0
TAP	21	192	7
TAP	21	264	1
TAP	21	336	3
HLD	22	0	5	144
TAP	22	144	6
HLD	22	192	7	144
STR	23	0	0
SI_	23	0	0	96	96	5
STR	23	192	1
SI_	23	192	1	96	96	4
STR	24	0	6
SI_	24	0	6	96	96	3
STR	24	192	7
SI_	24	192	7	96	96	2
HLD	25	0	3	192
TAP	25	72	4
TAP	25	144	5
HLD	25	192	2	144
TAP	25	264	1
TAP	25	336	0
HLD	26	0	7	144
TAP	26	144	6
HLD	26	192	6	96
TAP	27	0	0
TAP	27	0	1
TAP	27	96	4
TAP	27	96	5
TAP	27	192	2
TAP	27	192	3
BRK	27	288	7
BRK	27	289	6
HLD	28	0	0	144
TAP	28	0	1
TAP	28	72	2
TAP	28	144	3
HLD	28	192	6	144
TAP	28	192	7
TAP	28	264	5
HLD	28	336	3	336
STR	29	0	2
SI_	29	0	2	96	96	7
HLD	30	0	5	144
HLD	30	0	7	192
HLD	30	192	6	96
HLD	30	288	0	384
HLD	31	0	1	288
HLD	32	0	6	192
TAP	32	0	7
TAP	32	72	5
TAP	32	144	4
HLD	32	192	3	192
TAP	32	264	2
TAP	32	336	4
HLD	33	0	5	192
TAP	33	288	1
TAP	33	336	2
HLD	34	0	3	144
TAP	34	144	4
HLD	34	192	5	192
STR	35	0	3
SI_	35	0	3	96	48	7
STR	35	96	5
SI_	35	96	5	96	48	0
STR	35	192	2
SI_	35	192	2	96	48	7
HLD	36	0	6	144
TAP	36	0	7
TAP	36	72	5
TAP	36	144	3
HLD	36	192	0	144
TAP	36	192	7
TAP	36	264	2
TAP	36	336	4
HLD	37	0	5	144
TAP	37	0	6
TAP	37	72	4
TAP	37	144	2
TAP	37	192	6
HLD	37	192	7	144
TAP	37	264	0
TAP	37	336	2
STR	38	0	4
SCL	38	0	4	96	48	1
HLD	38	192	0	144
TAP	38	336	7
HLD	39	0	6	288
HLD	39	0	7	288
HLD	40	0	0	72
TAP	40	72	1
TAP	40	144	0
HLD	40	192	7	96
HLD	40	288	6	96
TAP	41	0	5
TAP	41	48	4
TAP	41	96	5
TAP	41	144	6
BRK	41	192	7
TAP	42	0	6
TAP	42	0	7
TAP	42	48	5
TAP	42	48	6
BRK	42	96	4
BRK	42	96	5
TAP	42	192	7
TAP	42	240	0
TAP	42	288	1
TAP	42	336	0
HLD	43	0	7	288
BRK	44	0	0
BRK	44	0	1
BRK	44	48	1
BRK	44	48	2
BRK	44	96	0
BRK	44	96	1
HLD	44	192	7	96
HLD	44	288	5	96
HLD	45	0	3	96
HLD	45	96	1	768
HLD	45	192	7	480
HLD	47	0	6	864
STR	47	192	4
SI_	47	192	4	96	576	0
HLD	49	288	1	96
TAP	50	0	2
TAP	50	72	7
TAP	50	144	6
HLD	50	192	5	96
TAP	50	288	4
TAP	51	0	7
HLD	51	72	0	120
HLD	51	192	1	96
HLD	51	288	3	96
HLD	52	0	2	72
HLD	52	72	0	72
HLD	52	144	7	48
HLD	52	192	6	64
HLD	52	256	0	64
HLD	52	320	1	64
HLD	53	0	2	96
TAP	53	144	0
HLD	53	192	7	72
TAP	53	264	6
STR	53	336	4
SI_	53	336	4	96	96	1
STR	53	336	5
SI_	53	336	5	96	96	0

T_REC_TAP	97
T_REC_BRK	12
T_REC_XTP	0
T_REC_HLD	72
T_REC_XHO	0
T_REC_STR	16
T_REC_BST	0
T_REC_XST	0
T_REC_TTP	0
T_REC_THO	0
T_REC_SLD	16
T_REC_ALL	213
T_NUM_TAP	113
T_NUM_BRK	12
T_NUM_HLD	72
T_NUM_SLD	16
T_NUM_ALL	213
T_JUDGE_TAP	125
T_JUDGE_HLD	266
T_JUDGE_SLD	16
T_JUDGE_ALL	407
TTM_EACHPAIRS	19
TTM_SCR_TAP	56500
TTM_SCR_BRK	31200
TTM_SCR_HLD	72000
TTM_SCR_SLD	24000
TTM_SCR_ALL	183700
TTM_SCR_S	177050
TTM_SCR_SS	182500
TTM_RAT_ACV	10065

