VERSION	0.00.00	1.03.00
FES_MODE	0
BPM_DEF	130.000	130.000	130.000	130.000
MET_DEF	4	4
RESOLUTION	384
CLK_DEF	384
COMPATIBLE_CODE	MA2

BPM	0	0	130.000
MET	0	0	4	4

TAP	2	192	0
HLD	2	264	6	120
HLD	2	264	7	120
TAP	3	192	0
HLD	3	264	2	120
HLD	3	264	3	120
TAP	4	96	7
HLD	4	192	6	192
HLD	5	0	5	192
STR	5	192	3
SI_	5	192	3	96	96	7
HLD	7	0	0	192
TAP	7	192	1
HLD	8	0	2	192
TAP	8	192	3
STR	9	0	2
SI_	9	0	2	96	96	7
BRK	10	0	7
HLD	11	0	6	96
TAP	11	96	5
HLD	11	168	4	120
HLD	12	0	2	96
TAP	12	96	3
HLD	12	168	4	120
HLD	13	0	6	192
HLD	13	192	7	192
HLD	14	0	0	288
HLD	15	0	1	96
TAP	15	96	2
TAP	15	168	2
TAP	15	168	3
HLD	16	0	1	96
TAP	16	96	0
TAP	16	168	0
TAP	16	168	7
TAP	17	0	1
TAP	17	72	2
TAP	17	144	3
HLD	17	192	3	192
STR	18	0	4
SI_	18	0	4	96	96	7
STR	18	192	0
SI_	18	192	0	96	96	3
TAP	19	0	7
TAP	19	96	7
TAP	19	192	6
TAP	19	288	6
TAP	20	0	7
TAP	20	96	7
TAP	20	192	0
TAP	20	288	0
TAP	21	0	1
TAP	21	96	1
TAP	21	192	5
TAP	21	288	5
TAP	22	0	3
TAP	22	96	3
TAP	22	192	7
BRK	22	288	7
STR	23	0	0
SI_	23	0	0	96	96	4
STR	24	0	5
SI_	24	0	5	96	96	1
HLD	25	0	2	192
HLD	25	192	3	192
HLD	26	0	4	288
BRK	27	0	7
BRK	27	96	5
BRK	27	192	3
BRK	27	288	1
TAP	28	0	0
TAP	28	96	0
TAP	28	96	7
TAP	28	192	6
TAP	28	288	5
TAP	28	288	6
TAP	29	0	7
TAP	29	96	0
TAP	29	96	7
TAP	29	192	1
TAP	29	288	1
TAP	29	288	2
HLD	30	0	0	192
HLD	30	192	7	192
TAP	30	288	6
HLD	31	0	5	288
TAP	32	0	7
TAP	32	72	0
TAP	32	144	1
HLD	32	192	1	192
TAP	33	0	7
TAP	33	72	6
TAP	33	144	5
HLD	33	192	5	192
TAP	34	0	6
TAP	34	96	7
TAP	34	192	0
TAP	34	288	1
TAP	35	0	0
TAP	35	0	7
TAP	35	96	6
TAP	35	96	7
TAP	35	192	5
TAP	35	192	6
BRK	35	288	4
BRK	35	288	5
TAP	36	0	6
TAP	36	96	6
TAP	36	96	7
TAP	36	192	0
TAP	36	288	0
TAP	36	288	1
TAP	37	0	7
TAP	37	96	6
TAP	37	96	7
TAP	37	192	5
TAP	37	288	4
TAP	37	288	5
HLD	38	0	6	192
HLD	38	192	0	192
HLD	39	0	2	288
TAP	40	0	1
TAP	40	72	0
TAP	40	144	7
HLD	40	192	7	192
TAP	41	0	0
TAP	41	48	0
TAP	41	96	1
TAP	41	144	1
HLD	41	192	2	96
TAP	42	0	0
TAP	42	0	7
TAP	42	48	0
TAP	42	48	7
TAP	42	96	0
TAP	42	96	7
TAP	42	192	6
TAP	42	288	4
HLD	43	0	2	288
BRK	44	0	0
BRK	44	0	7
BRK	44	48	0
BRK	44	48	7
BRK	44	96	0
BRK	44	96	7
HLD	44	192	1	192
HLD	45	0	3	192
HLD	45	192	5	576
HLD	47	0	6	96
HLD	47	192	0	672
HLD	47	192	6	672
TAP	50	0	1
HLD	50	72	2	120
HLD	50	72	3	120
TAP	51	0	1
HLD	51	72	0	120
HLD	51	72	7	120
TAP	51	288	6
HLD	52	0	5	192
HLD	52	192	4	192
HLD	53	0	3	192
TAP	53	192	4
TAP	53	264	6
STR	53	336	0
SI_	53	336	0	96	192	3

T_REC_TAP	92
T_REC_BRK	14
T_REC_XTP	0
T_REC_HLD	45
T_REC_XHO	0
T_REC_STR	7
T_REC_BST	0
T_REC_XST	0
T_REC_TTP	0
T_REC_THO	0
T_REC_SLD	7
T_REC_ALL	165
T_NUM_TAP	99
T_NUM_BRK	14
T_NUM_HLD	45
T_NUM_SLD	7
T_NUM_ALL	165
T_JUDGE_TAP	113
T_JUDGE_HLD	196
T_JUDGE_SLD	7
T_JUDGE_ALL	316
TTM_EACHPAIRS	25
TTM_SCR_TAP	49500
TTM_SCR_BRK	36400
TTM_SCR_HLD	45000
TTM_SCR_SLD	10500
TTM_SCR_ALL	141400
TTM_SCR_S	135800
TTM_SCR_SS	140000
TTM_RAT_ACV	10100

