VERSION	0.00.00	1.03.00
FES_MODE	0
BPM_DEF	130.000	130.000	130.000	130.000
MET_DEF	4	4
RESOLUTION	384
CLK_DEF	384
COMPATIBLE_CODE	MA2

BPM	0	0	130.000
MET	0	0	4	4

TAP	2	96	1
TAP	2	96	7
TAP	3	96	0
TAP	3	96	6
HLD	4	0	1	288
TAP	5	0	2
HLD	5	192	3	479
TAP	7	96	0
TAP	7	288	7
TAP	8	96	6
STR	8	288	5
SI_	8	288	5	96	96	1
HLD	11	0	1	288
HLD	12	0	2	288
TAP	13	96	1
TAP	13	288	0
TAP	14	96	7
TAP	14	288	6
HLD	15	0	5	288
HLD	16	0	4	288
STR	17	0	3
SI_	17	0	3	96	96	0
BRK	18	0	0
TAP	19	0	7
TAP	19	192	7
TAP	20	0	0
TAP	20	192	0
TAP	21	0	7
TAP	21	192	6
TAP	22	0	5
TAP	22	192	4
HLD	23	0	3	288
HLD	24	0	2	288
TAP	25	0	3
TAP	25	192	4
TAP	26	0	5
TAP	26	192	6
TAP	27	0	7
TAP	27	96	7
TAP	27	192	0
BRK	27	288	0
TAP	28	0	1
TAP	28	192	2
HLD	29	0	3	288
TAP	30	0	1
TAP	30	192	0
HLD	31	0	7	288
HLD	32	0	6	288
HLD	33	0	5	288
TAP	34	0	6
TAP	34	192	7
TAP	35	0	0
TAP	35	96	0
TAP	35	192	1
BRK	35	288	1
TAP	36	0	2
TAP	36	192	0
HLD	37	0	6	288
STR	38	0	5
SI_	38	0	5	96	96	1
STR	39	0	4
SI_	39	0	4	96	96	0
TAP	40	0	7
TAP	40	192	6
TAP	41	0	7
TAP	41	96	7
BRK	41	192	7
TAP	42	0	0
TAP	42	48	0
TAP	42	96	0
TAP	42	192	1
TAP	42	288	2
HLD	43	0	3	288
TAP	44	0	0
TAP	44	48	0
TAP	44	96	0
HLD	44	192	7	96
HLD	45	0	6	96
HLD	45	192	5	480
HLD	47	0	7	96
STR	47	192	1
SI_	47	192	1	96	96	4
STR	48	192	5
SI_	48	192	5	96	96	0
TAP	49	288	1
TAP	49	288	7
TAP	50	288	0
TAP	50	288	6
HLD	51	192	1	288
HLD	52	192	2	288
TAP	53	192	1
STR	53	336	0
SI_	53	336	0	96	192	3

T_REC_TAP	55
T_REC_BRK	4
T_REC_XTP	0
T_REC_HLD	20
T_REC_XHO	0
T_REC_STR	7
T_REC_BST	0
T_REC_XST	0
T_REC_TTP	0
T_REC_THO	0
T_REC_SLD	7
T_REC_ALL	93
T_NUM_TAP	62
T_NUM_BRK	4
T_NUM_HLD	20
T_NUM_SLD	7
T_NUM_ALL	93
T_JUDGE_TAP	66
T_JUDGE_HLD	116
T_JUDGE_SLD	7
T_JUDGE_ALL	189
TTM_EACHPAIRS	4
TTM_SCR_TAP	31000
TTM_SCR_BRK	10400
TTM_SCR_HLD	20000
TTM_SCR_SLD	10500
TTM_SCR_ALL	71900
TTM_SCR_S	69400
TTM_SCR_SS	71500
TTM_RAT_ACV	10055

