VERSION	0.00.00	1.03.00
FES_MODE	0
BPM_DEF	175.000	175.000	175.000	175.000
MET_DEF	4	4
RESOLUTION	384
CLK_DEF	384
COMPATIBLE_CODE	MA2

BPM	0	0	175.000
MET	0	0	4	4
MET	6	0	8	6
MET	8	48	8	3
MET	8	192	8	6
MET	10	288	8	7
MET	11	192	4	4
MET	17	192	4	6
MET	19	0	4	4
MET	25	0	4	7
MET	26	288	4	4
MET	73	288	8	6
MET	75	336	8	3
MET	76	96	8	6
MET	81	144	8	3
MET	81	288	8	6

HLD	1	0	0	96
TAP	1	144	0
HLD	1	288	0	96
TAP	2	48	0
HLD	2	192	0	96
TAP	2	336	0
STR	2	336	4
SXL	2	336	4	96	144	4
TAP	3	48	1
TAP	3	144	0
HLD	3	192	0	96
TAP	3	336	0
HLD	4	96	0	96
TAP	4	240	0
HLD	5	0	0	96
TAP	5	144	0
STR	5	144	7
SXR	5	144	7	96	144	7
TAP	5	240	1
TAP	5	336	0
STR	6	0	0
SI_	6	0	0	96	48	4
TAP	6	96	5
TAP	6	144	6
HLD	6	192	7	96
STR	6	288	4
SI_	6	288	4	96	48	0
TAP	7	0	5
TAP	7	48	6
STR	7	96	7
SI_	7	96	7	96	48	3
STR	7	192	1
SLR	7	192	1	96	96	0
TAP	7	288	3
TAP	7	336	4
STR	8	0	4
SI_	8	0	4	96	48	7
TAP	8	96	0
STR	8	192	7
SI_	8	192	7	96	48	3
TAP	8	288	2
TAP	8	336	1
HLD	9	0	0	96
STR	9	96	3
SI_	9	96	3	96	48	7
TAP	9	192	2
TAP	9	240	1
STR	9	288	0
SI_	9	288	0	96	48	4
STR	10	0	6
SLL	10	0	6	96	96	7
TAP	10	96	4
TAP	10	144	3
TAP	10	192	3
TAP	10	288	3
TAP	10	288	5
TAP	10	336	4
TAP	11	0	3
BRK	11	48	2
BRK	11	48	5
TAP	11	192	3
TAP	11	192	4
TAP	11	288	3
TAP	11	336	2
TAP	12	0	1
TAP	12	48	0
TAP	12	48	1
TAP	12	144	3
TAP	12	144	4
TAP	12	240	6
TAP	12	240	7
TAP	12	336	3
HLD	12	336	4	96
TAP	13	48	3
HLD	13	96	3	96
TAP	13	192	4
TAP	13	288	4
TAP	13	336	4
TAP	14	0	5
STR	14	48	6
SCR	14	48	6	96	96	2
STR	14	144	2
SV_	14	144	2	96	96	4
TAP	14	240	4
TAP	14	336	0
TAP	15	48	0
TAP	15	48	7
TAP	15	96	0
TAP	15	96	7
TAP	15	192	3
TAP	15	192	4
TAP	15	288	4
TAP	15	336	4
TAP	16	0	3
STR	16	48	2
SCR	16	48	2	96	48	5
TAP	16	144	6
STR	16	240	5
SCL	16	240	5	96	48	2
TAP	16	336	1
TAP	17	48	2
TAP	17	96	2
TAP	17	96	4
STR	17	192	1
SCR	17	192	1	96	48	4
TAP	17	288	5
STR	17	336	6
SCR	17	336	6	96	48	1
TAP	18	48	2
STR	18	96	3
SCR	18	96	3	96	48	6
TAP	18	192	7
STR	18	240	0
SCR	18	240	0	96	48	3
TAP	18	336	7
BRK	19	0	7
TAP	19	96	5
HLD	19	144	3	48
HLD	19	144	4	48
HLD	19	240	3	48
HLD	19	240	4	48
HLD	19	336	3	48
HLD	19	336	4	48
HLD	20	48	4	48
HLD	20	48	5	48
HLD	20	144	2	48
HLD	20	144	3	48
HLD	20	240	3	48
HLD	20	240	4	48
TAP	20	336	2
TAP	20	336	5
TAP	21	0	2
TAP	21	0	5
TAP	21	96	7
TAP	21	144	7
TAP	21	192	6
STR	21	240	5
SSR	21	240	5	96	192	1
TAP	21	336	0
TAP	22	48	0
TAP	22	144	0
TAP	22	240	1
TAP	22	240	6
TAP	22	288	1
TAP	22	288	6
TAP	23	0	3
TAP	23	0	4
TAP	23	96	3
TAP	23	144	3
TAP	23	192	4
STR	23	240	5
SCR	23	240	5	96	96	1
STR	23	336	1
SV_	23	336	1	96	96	3
TAP	24	48	3
TAP	24	144	0
TAP	24	240	4
STR	24	288	5
SCR	24	288	5	96	96	2
TAP	25	0	2
TAP	25	192	0
TAP	25	240	0
HLD	25	336	7	96
TAP	26	48	0
TAP	26	96	0
TAP	26	144	6
TAP	26	192	2
TAP	26	192	5
TAP	26	240	3
TAP	26	240	4
HLD	26	288	3	96
STR	26	288	4
SI_	26	288	4	96	1056	7
HLD	27	96	2	96
HLD	27	288	3	96
HLD	28	96	4	96
HLD	28	288	3	96
HLD	29	96	2	96
HLD	29	288	3	96
STR	30	0	7
SI_	30	0	7	96	48	3
TAP	30	96	1
TAP	30	192	0
STR	30	240	0
SCR	30	240	0	96	48	3
STR	30	288	4
SCR	30	288	4	96	48	7
HLD	31	48	3	96
HLD	31	96	7	96
STR	31	240	3
SCL	31	240	3	96	48	0
STR	31	288	7
SCL	31	288	7	96	48	4
HLD	32	48	0	96
HLD	32	96	4	96
TAP	32	192	0
TAP	32	240	4
TAP	32	288	3
TAP	32	288	4
TAP	32	336	3
TAP	32	336	4
TAP	33	0	3
TAP	33	0	4
TAP	33	48	3
TAP	33	48	4
TAP	33	96	2
TAP	33	96	5
TAP	33	144	2
TAP	33	144	5
TAP	33	192	1
TAP	33	192	6
TAP	33	240	1
TAP	33	240	6
TAP	33	288	0
TAP	33	288	7
STR	33	336	0
SI_	33	336	0	96	48	4
STR	33	336	7
SI_	33	336	7	96	48	3
BRK	34	48	0
BRK	34	48	7
BRK	34	144	2
BRK	34	144	5
TAP	34	240	1
STR	34	288	1
SCR	34	288	1	96	48	4
STR	34	336	4
SXR	34	336	4	96	144	5
TAP	35	0	4
TAP	35	48	5
TAP	35	144	7
TAP	35	240	6
STR	35	288	6
SCL	35	288	6	96	48	3
STR	35	336	3
SXL	35	336	3	96	144	2
TAP	36	0	3
TAP	36	48	2
TAP	36	144	0
TAP	36	240	1
STR	36	288	1
SCR	36	288	1	96	48	4
STR	36	336	4
SXR	36	336	4	96	144	5
TAP	37	0	4
TAP	37	48	5
TAP	37	144	7
TAP	37	240	0
TAP	37	240	7
TAP	37	288	0
TAP	37	288	7
TAP	37	336	6
TAP	38	0	2
TAP	38	0	5
TAP	38	48	2
TAP	38	48	5
TAP	38	144	1
TAP	38	192	0
TAP	38	240	6
STR	38	288	6
SCL	38	288	6	96	48	3
STR	38	336	3
SXL	38	336	3	96	144	7
TAP	39	0	3
TAP	39	48	2
STR	39	144	0
SCR	39	144	0	96	96	4
STR	39	240	4
SCR	39	240	4	96	96	0
STR	39	336	0
SCR	39	336	0	96	96	4
TAP	40	48	4
STR	40	144	0
SCL	40	144	0	96	144	1
TAP	41	96	0
TAP	41	96	7
TAP	41	192	1
TAP	41	192	5
TAP	41	240	2
TAP	41	240	6
STR	41	336	0
SCR	41	336	0	96	48	3
STR	41	336	7
SCL	41	336	7	96	48	4
TAP	42	48	0
TAP	42	48	7
TAP	42	144	3
TAP	42	144	4
BST	42	192	2
SI_	42	192	2	96	48	0
SI_	42	192	2	96	48	7
BRK	42	288	2
TAP	43	48	0
TAP	43	48	7
TAP	43	96	0
TAP	43	96	7
STR	43	192	0
SCL	43	192	0	96	96	4
TAP	43	192	1
STR	44	0	7
SCR	44	0	7	96	96	3
STR	44	192	0
SCL	44	192	0	96	96	4
STR	45	0	7
SCR	45	0	7	96	96	3
TAP	45	192	0
TAP	45	240	0
TAP	45	288	0
TAP	46	0	2
TAP	46	0	3
TAP	46	96	4
TAP	46	96	5
TAP	46	192	6
TAP	46	192	7
BRK	46	288	0
BRK	46	288	7
TAP	47	48	0
TAP	47	72	7
HLD	47	96	6	96
TAP	47	192	7
TAP	47	240	7
TAP	47	288	6
TAP	47	288	7
TAP	47	336	6
TAP	47	336	7
TAP	48	0	0
TAP	48	0	5
TAP	48	48	0
TAP	48	48	5
TAP	48	96	1
TAP	48	96	4
TAP	48	144	1
TAP	48	144	4
TAP	48	192	2
TAP	48	192	3
TAP	48	240	2
TAP	48	240	3
STR	48	288	2
SCL	48	288	2	96	48	7
STR	48	336	7
SXL	48	336	7	96	144	6
TAP	49	0	7
TAP	49	48	6
TAP	49	144	4
TAP	49	240	5
STR	49	288	5
SCR	49	288	5	96	48	0
STR	49	336	0
SXR	49	336	0	96	144	1
TAP	50	0	0
TAP	50	48	1
TAP	50	144	3
TAP	50	240	2
STR	50	288	2
SCL	50	288	2	96	48	7
STR	50	336	7
SXL	50	336	7	96	144	6
TAP	51	0	7
TAP	51	48	6
TAP	51	144	4
TAP	51	240	5
STR	51	288	5
SCR	51	288	5	96	48	0
STR	51	336	0
SXR	51	336	0	96	144	4
TAP	52	0	0
TAP	52	48	1
STR	52	144	3
SCL	52	144	3	96	96	7
STR	52	240	7
SCL	52	240	7	96	96	3
STR	52	336	3
SCL	52	336	3	96	96	7
STR	53	48	7
SUL	53	48	7	96	96	3
STR	53	144	3
SUL	53	144	3	96	96	7
STR	53	240	7
SCL	53	240	7	96	96	3
STR	53	336	3
SCL	53	336	3	96	96	7
TAP	54	48	7
STR	54	144	3
SF_	54	144	3	96	48	7
TAP	55	0	0
TAP	55	0	1
HLD	55	48	0	96
HLD	55	48	1	96
TAP	55	192	6
TAP	55	192	7
TAP	55	240	6
TAP	55	240	7
TAP	55	288	5
TAP	55	336	3
STR	56	0	4
SI_	56	0	4	96	96	0
TAP	56	48	4
TAP	56	96	3
TAP	56	144	3
TAP	56	192	3
BRK	56	288	0
BRK	56	288	2
TAP	56	336	1
BRK	57	0	0
BRK	57	0	6
TAP	57	48	7
BRK	57	96	0
BRK	57	96	1
TAP	57	144	2
BRK	57	192	0
BRK	57	192	7
TAP	57	240	6
BRK	57	288	5
BRK	57	288	7
TAP	57	336	6
BRK	58	0	1
BRK	58	0	7
TAP	58	48	0
BRK	58	96	6
BRK	58	96	7
TAP	58	144	5
BRK	58	192	0
BRK	58	192	7
TAP	58	240	1
BRK	58	288	0
BRK	58	288	1
TAP	58	336	2
BRK	59	0	0
BRK	59	0	2
TAP	59	48	3
BRK	59	96	6
BRK	59	96	7
TAP	59	144	5
BRK	59	192	5
BRK	59	192	7
TAP	59	240	4
BRK	59	288	0
BRK	59	288	7
STR	60	0	1
SI_	60	0	1	96	48	4
STR	60	96	6
SI_	60	96	6	96	48	3
HLD	60	288	7	192
STR	61	96	4
SI_	61	96	4	96	48	0
TAP	61	288	0
TAP	61	288	6
STR	62	96	1
SV_	62	96	1	96	48	4
STR	62	96	7
SV_	62	96	7	96	48	4
BRK	62	192	1
BRK	62	192	7
TAP	62	288	6
TAP	62	336	6
STR	63	0	7
SCR	63	0	7	96	48	2
HLD	63	48	7	96
TAP	63	192	1
TAP	63	240	1
STR	63	288	0
SCL	63	288	0	96	48	5
HLD	63	336	0	96
TAP	64	96	6
TAP	64	144	6
STR	64	192	7
SCR	64	192	7	96	48	2
HLD	64	240	7	96
TAP	65	0	1
TAP	65	48	1
TAP	65	96	2
TAP	65	144	2
STR	65	192	3
SCR	65	192	3	96	48	6
HLD	65	240	3	96
TAP	66	0	5
TAP	66	48	5
STR	66	96	4
SCL	66	96	4	96	48	1
HLD	66	144	4	96
TAP	66	288	2
TAP	66	336	2
STR	67	0	3
SCR	67	0	3	96	48	6
HLD	67	48	3	96
TAP	67	192	5
TAP	67	240	5
STR	67	288	4
SCL	67	288	4	96	48	1
HLD	67	336	4	96
TAP	68	96	2
TAP	68	144	2
STR	68	192	1
SUR	68	192	1	96	48	5
HLD	68	240	1	96
TAP	69	0	6
TAP	69	48	6
STR	69	96	5
SUR	69	96	5	96	48	1
HLD	69	144	5	96
TAP	69	288	2
TAP	69	336	2
STR	70	0	1
SUR	70	0	1	96	48	5
HLD	70	48	1	96
TAP	70	192	6
TAP	70	240	6
TAP	70	288	7
TAP	70	336	7
STR	71	0	7
SV_	71	0	7	96	48	2
HLD	71	48	7	96
TAP	71	192	1
TAP	71	240	1
STR	71	288	0
SV_	71	288	0	96	48	5
HLD	71	336	0	96
TAP	72	96	6
TAP	72	144	6
STR	72	192	7
SV_	72	192	7	96	48	2
HLD	72	240	7	96
TAP	73	0	1
TAP	73	48	1
STR	73	96	0
SI_	73	96	0	96	48	4
HLD	73	144	0	144
HLD	73	288	7	96
TAP	74	48	7
HLD	74	192	7	96
TAP	74	336	7
HLD	75	96	7	96
STR	75	240	3
SXR	75	240	3	96	144	3
TAP	75	240	7
TAP	75	336	6
TAP	76	48	7
HLD	76	96	7	96
TAP	76	240	7
HLD	77	0	7	96
TAP	77	144	7
HLD	77	288	7	96
TAP	78	48	7
STR	78	192	2
SXL	78	192	2	96	144	2
HLD	78	192	7	96
TAP	78	336	7
HLD	79	96	7	96
TAP	79	240	7
HLD	80	0	7	96
TAP	80	144	7
HLD	80	288	7	96
STR	81	48	0
SXL	81	48	0	96	144	0
TAP	81	48	7
TAP	81	144	6
TAP	81	240	7
HLD	81	288	7	96
TAP	82	48	7
TAP	82	192	3
HLD	82	192	7	96
TAP	82	288	3
TAP	82	336	7
TAP	83	0	2
TAP	83	96	2
HLD	83	96	6	96
TAP	83	192	1
TAP	83	240	6
TAP	83	288	1
TAP	84	0	0
HLD	84	0	5	96
TAP	84	96	0
TAP	84	144	5
TAP	84	192	0
TAP	84	240	4

T_REC_TAP	292
T_REC_BRK	38
T_REC_XTP	0
T_REC_HLD	66
T_REC_XHO	0
T_REC_STR	88
T_REC_BST	1
T_REC_XST	0
T_REC_TTP	0
T_REC_THO	0
T_REC_SLD	90
T_REC_ALL	575
T_NUM_TAP	380
T_NUM_BRK	39
T_NUM_HLD	66
T_NUM_SLD	90
T_NUM_ALL	575
T_JUDGE_TAP	419
T_JUDGE_HLD	123
T_JUDGE_SLD	90
T_JUDGE_ALL	632
TTM_EACHPAIRS	90
TTM_SCR_TAP	190000
TTM_SCR_BRK	101400
TTM_SCR_HLD	66000
TTM_SCR_SLD	135000
TTM_SCR_ALL	492400
TTM_SCR_S	473850
TTM_SCR_SS	488500
TTM_RAT_ACV	10079

